Світами за скарбами (Сезон 1, Випуски 1-14) (2018) WEBRір 720р

Нові коментарі

Нова тема   Відповісти
Автор Повідомлення
mindmaker 
Новенький


З нами з: 06.04.12
Востаннє: 09.09.18
Повідомлень: 11

2018-05-07 22:17  
Світами за скарбами (Сезон 1, Випуски 1-14) (2018) WEBRір 720р

Світами за скарбами (Сезон 1, Випуски 1-14) (2018) WEBRір 720р


Жанр: пригодницьке тревел-шоу
Країна: Україна

Телеканал: СТБ
Ведуча: Роза Аль-Намрі

Опис:
«Світами за скарбами» - це масштабне пригодницьке тревел-шоу, в якому учасники будуть боротися за великий грошовий приз, подорожуючи при цьому по різних країнах.

СТБ адаптував формат Final Adventure, що вперше з'явився в 2013 році в Південній Кореї на телеканалі MBC. А створює проект «Світами за скарбами» творче об'єднання Володимира Турича, відоме за проектом «Мастер Шеф». Ведучою шоу стала неймовірна Роза Аль-Намрі - її глядач пам'ятає і любить за проектами «Холостяк», «Неймовірна правда про зірок» та «Як вийти заміж».

До участі в шоу запрошуються вісім пар, яких пов'язують сімейні або дружні стосунки. Їм належить пройти безліч випробувань по всьому світу, а в фіналі одна пара-переможець отримає головний «скарб» - 500 000 гривень. У лідируючих пар будуть особливі привілеї, а відстаючі отримають «чорну мітку» і поборються за своє місце на проекті.


Тривалість: ~ від 01:30:00 до 02:20:00 кожен випуск
Якість: WEBRір
Відео:
кодек:
розмір кадру: 1280 х 720
бітрейт: 3000 кб/с

Аудіо:
мова: українська
переклад: оригінал
кодек: 2.0
бітрейт: 128 кб/с
Скріншоти
Info
Код:
General
Complete name               : I:\video\Світами за скарбами\Світами за скарбами 01 випуск від 03.03.2018.mp4
Format                      : MPEG-4
Format profile              : Base Media
Codec ID                    : isom (isom/iso2/avc1/mp41)
File size                   : 2.17 GiB
Duration                    : 1 h 38 min
Overall bit rate            : 3 133 kb/s
Writing application         : Lavf56.25.101

Video
ID                          : 1
Format                      : AVC
Format/Info                 : Advanced Video Codec
Format profile              : [email protected]
Format settings, CABAC      : Yes
Format settings, RefFrames  : 4 frames
Codec ID                    : avc1
Codec ID/Info               : Advanced Video Coding
Duration                    : 1 h 38 min
Bit rate                    : 3 000 kb/s
Width                       : 1 280 pixels
Height                      : 720 pixels
Display aspect ratio        : 16:9
Frame rate mode             : Constant
Frame rate                  : 25.000 FPS
Color space                 : YUV
Chroma subsampling          : 4:2:0
Bit depth                   : 8 bits
Scan type                   : Progressive
Bits/(Pixel*Frame)          : 0.130
Stream size                 : 2.07 GiB (96%)
Writing library             : core 142 r2491 24e4fed
Encoding settings           : cabac=1 / ref=3 / deblock=1:0:0 / analyse=0x3:0x113 / me=hex / subme=7 / psy=1 / psy_rd=1.00:0.00 / mixed_ref=1 / me_range=16 / chroma_me=1 / trellis=1 / 8x8dct=1 / cqm=0 / deadzone=21,11 / fast_pskip=1 / chroma_qp_offset=-2 / threads=16 / lookahead_threads=2 / sliced_threads=0 / nr=0 / decimate=1 / interlaced=0 / bluray_compat=0 / constrained_intra=0 / bframes=3 / b_pyramid=2 / b_adapt=1 / b_bias=0 / direct=1 / weightb=1 / open_gop=0 / weightp=2 / keyint=250 / keyint_min=25 / scenecut=40 / intra_refresh=0 / rc_lookahead=40 / rc=abr / mbtree=1 / bitrate=3000 / ratetol=1.0 / qcomp=0.60 / qpmin=0 / qpmax=69 / qpstep=4 / ip_ratio=1.40 / aq=1:1.00
Color range                 : Limited
Transfer characteristics    : BT.601
Matrix coefficients         : BT.601

Audio
ID                          : 2
Format                      :
Format/Info                 : Advanced Audio Codec
Format profile              : LC
Codec ID                    : 40
Duration                    : 1 h 38 min
Bit rate mode               : Constant
Bit rate                    : 128 kb/s
Channel(s)                  : 2 channels
Channel positions           : Front: L R
Sampling rate               : 48.0 kHz
Frame rate                  : 46.875 FPS (1024 SPF)
Compression mode            : Lossy
Stream size                 : 90.8 MiB (4%)
Default                     : Yes
Alternate group             : 1
Джерело: Сайт каналу СТБ
Особиста оцінка: 10 - без зайвих вагань рекомендую всім!


Золотий реліз (завантажене не впливає на рейтинг)
 Трекер:    Зареєстрований   

Завантажити / скачати передачу українською



відео для новачків



 Зареєстрований:   2018-06-10 17:57
 Розмір:   33.81 GB 
 Оцінка передачі:   9.8/10 (Голосів: 4)
   
11FrYkT 
Модератор відео


З нами з: 20.02.11
Востаннє: 19.09.18
Повідомлень: 5028

2018-05-08 07:21  
mindmaker написано:
Світами за скарбами (Сезон 1, Випуски 1-10) (2018)

mindmaker написано:
Світами за скарбами (Сезон 1, Випуски 1-10) (2018) WEBRір

так яка? також додайте що це 720р

В описі додайте ведучих

Також додайте звіт Медіаінфо і замініть скріншоти у форматі ПНГ

mindmaker 
Новенький


З нами з: 06.04.12
Востаннє: 09.09.18
Повідомлень: 11

2018-05-08 09:47  
11FrYkT написано:

В описі додайте ведучих

Також додайте звіт Медіаінфо і замініть скріншоти у форматі ПНГ


Все поправив

11FrYkT 
Модератор відео


З нами з: 20.02.11
Востаннє: 19.09.18
Повідомлень: 5028

2018-05-08 11:47  
mindmaker написано:
Все поправив

ну тепер вони у Вас не відповідають розміру

mindmaker 
Новенький


З нами з: 06.04.12
Востаннє: 09.09.18
Повідомлень: 11

2018-05-08 12:02  
11FrYkT написано:
ну тепер вони у Вас не відповідають розміру

Має бути 1280*720?

11FrYkT 
Модератор відео


З нами з: 20.02.11
Востаннє: 19.09.18
Повідомлень: 5028

2018-05-08 12:07  
так, до цього у Вас так і бути 1280х720
mindmaker 
Новенький


З нами з: 06.04.12
Востаннє: 09.09.18
Повідомлень: 11

2018-05-08 12:15  
Перезалив скріни PNG 1280х720
mindmaker 
Новенький


З нами з: 06.04.12
Востаннє: 09.09.18
Повідомлень: 11

2018-05-20 20:35  
Добавив 11 випуск
mindmaker 
Новенький


З нами з: 06.04.12
Востаннє: 09.09.18
Повідомлень: 11

2018-05-27 10:14  
Добавив 12 випуск
mindmaker 
Новенький


З нами з: 06.04.12
Востаннє: 09.09.18
Повідомлень: 11

2018-06-03 10:10  
Добавив 13 випуск
mindmaker 
Новенький


З нами з: 06.04.12
Востаннє: 09.09.18
Повідомлень: 11

2018-06-10 17:59  
Добавив 14 випуск
Ваш часовий пояс: GMT + 2 Години

Нова тема   Відповісти