Старперці / Last Vegas (2013) AVC 2xUkr/Eng Sub Ukr/Eng

Нові коментарі

Нова тема   Відповісти
Автор Повідомлення
staf777 
Відео Гуртом - підтримка та поширення
Відео Гуртом - підтримка та поширення


З нами з: 16.11.16
Востаннє: 22.11.19
Повідомлень: 3034

2018-05-07 19:27  
Старперці / Last Vegas (2013) AVC 2xUkr/Eng Sub Ukr/Eng

Старперці / Last Vegas (2013) AVC 2xUkr/Eng Sub Ukr/Eng


Жанр: комедія
Країна: США



Кінокомпанія: CBS Films, Gidden Media, Good Universe
Режисер: Джон Тертелтауб / Jon Turteltaub
Актори: Роберт Де Ніро / Robert De Niro, Морґан Фрімен / Morgan Freeman, Майкл Дуґлас / Michael Douglas, Кевін Клайн / Kevin Kline, Мері Стінберґен / Mary Steenburgen, Джеррі Феррара / Jerry Ferrara, Роджер Барт / Roger Bart та інші

Сюжет:
Знайомтесь, це — Старперці — оскароносні та легендарні Роберт де Ніро, Морґан Фрімен, Майкл Дуґлас і Кевін Клайн, вони ж Біллі, Педді, Арчі та Сем — четвірка друзів-нерозлийвода з дитинства. Коли закоренілий холостяк Біллі (Майкл Дуґлас) нарешті робить пропозицію своїй молодій дівчині, товариші вирушають на холостяцьку вечірку не куди-небудь, а звичайно ж до Лас-Веґаса. Перед вами — остання холостяцька вечірка у Веґасі, тільки цього разу без молодиків. Це грандіозна голлівудська вечірка по-дорослому, в якій Лас-Веґас, що змінився до невпізнанності за довгі роки, перевірить дружбу героїв на міцність найдивовижнішим чином...


Тривалість: 01:45:00
Якість: AVC
Відео:
кодек:
розмір кадру: 1024x426
бітрейт: 2801 кб/с

Аудіо # 1:
мова: українська
переклад: багатоголосий закадровий
кодек: 2.0
бітрейт: 192 кб/с

Аудіо # 2:
мова: українська
переклад: багатоголосий закадровий
кодек: 2.0
бітрейт: 192 кб/с

Аудіо # 3:
мова: англійська
переклад: оригінал
кодек: 5.1
бітрейт: 448 кб/с

Субтитри:
мова: українська англійська
тип: програмні (м'які)
формат: *.srt
Скріншоти



MI
General
Unique ID : 254923444997405091323035403098783223025 (0xBFC8783952C99A16BFDA6348D9F80CF1)
Complete name : H:\» Українське озвучення » Фільми\Комедія\Last Vegas (2013) AVC [2xUkr Eng][Sub Ukr Eng][Hurtom].
Format :
Format version : Version 4 / Version 2
File size : 2.68 GiB
Duration : 1 h 45 min
Overall bit rate : 3 623 kb/s
Movie name : Last Vegas (2013) AVC [2xUkr Eng][Sub Ukr Eng][Hurtom]
Encoded date : UTC 2018-05-07 17:17:10
Writing application : v9.8.0 ('Kuglblids') 64bit
Writing library : libebml v1.3.4 + v1.4.5
Cover : Yes
Attachments : cover.jpg

Video
ID : 1
Format : AVC
Format/Info : Advanced Video Codec
Format profile : [email protected]
Format settings : CABAC / 10 Ref Frames
Format settings, CABAC : Yes
Format settings, ReFrames : 10 frames
Codec ID : V_MPEG4/ISO/AVC
Duration : 1 h 45 min
Bit rate : 2 801 kb/s
Width : 1 024 pixels
Height : 426 pixels
Display aspect ratio : 2.40:1
Frame rate mode : Constant
Frame rate : 23.976 (24000/1001) FPS
Color space : YUV
Chroma subsampling : 4:2:0
Bit depth : 8 bits
Scan type : Progressive
Bits/(Pixel*Frame) : 0.268
Stream size : 2.07 GiB (77%)
Writing library : core 130 r2273 b3065e6
Encoding settings : cabac=1 / ref=10 / deblock=1:-3:-3 / analyse=0x3:0x133 / me=umh / subme=11 / psy=1 / psy_rd=1.00:0.20 / mixed_ref=1 / me_range=48 / chroma_me=1 / trellis=2 / 8x8dct=1 / cqm=0 / deadzone=21,11 / fast_pskip=0 / chroma_qp_offset=-3 / threads=6 / lookahead_threads=1 / sliced_threads=0 / nr=0 / decimate=0 / interlaced=0 / bluray_compat=0 / constrained_intra=0 / bframes=14 / b_pyramid=2 / b_adapt=2 / b_bias=0 / direct=3 / weightb=1 / open_gop=0 / weightp=2 / keyint=240 / keyint_min=23 / scenecut=40 / intra_refresh=0 / rc=2pass / mbtree=0 / bitrate=2801 / ratetol=1.0 / qcomp=0.60 / qpmin=0 / qpmax=69 / qpstep=4 / cplxblur=20.0 / qblur=0.5 / ip_ratio=1.40 / pb_ratio=1.30 / aq=1:1.00
Language : English
Default : Yes
Forced : No

Audio #1
ID : 2
Format : AC-3
Format/Info : Audio Coding 3
Codec ID : A_AC3
Duration : 1 h 44 min
Bit rate mode : Constant
Bit rate : 192 kb/s
Channel(s) : 2 channels
Channel positions : Front: L R
Sampling rate : 48.0 kHz
Frame rate : 31.250 FPS (1536 SPF)
Bit depth : 16 bits
Compression mode : Lossy
Stream size : 144 MiB (5%)
Title : [UA-MVO]
Language : Ukrainian
Service kind : Complete Main
Default : Yes
Forced : Yes

Audio #2
ID : 3
Format : AC-3
Format/Info : Audio Coding 3
Codec ID : A_AC3
Duration : 1 h 44 min
Bit rate mode : Constant
Bit rate : 192 kb/s
Channel(s) : 2 channels
Channel positions : Front: L R
Sampling rate : 48.0 kHz
Frame rate : 31.250 FPS (1536 SPF)
Bit depth : 16 bits
Compression mode : Lossy
Stream size : 144 MiB (5%)
Title : [UA-MVO-LINE IN]
Language : Ukrainian
Service kind : Complete Main
Default : No
Forced : No

Audio #3
ID : 5
Format : AC-3
Format/Info : Audio Coding 3
Codec ID : A_AC3
Duration : 1 h 44 min
Bit rate mode : Constant
Bit rate : 448 kb/s
Channel(s) : 6 channels
Channel positions : Front: L C R, Side: L R, LFE
Sampling rate : 48.0 kHz
Frame rate : 31.250 FPS (1536 SPF)
Bit depth : 16 bits
Compression mode : Lossy
Stream size : 336 MiB (12%)
Language : English
Service kind : Complete Main
Default : No
Forced : No

Text #1
ID : 4
Format : UTF-8
Codec ID : S_TEXT/UTF8
Codec ID/Info : UTF-8 Plain Text
Duration : 1 h 40 min
Bit rate : 117 b/s
Count of elements : 1809
Stream size : 86.5 KiB (0%)
Language : Ukrainian
Default : No
Forced : No

Text #2
ID : 6
Format : UTF-8
Codec ID : S_TEXT/UTF8
Codec ID/Info : UTF-8 Plain Text
Duration : 1 h 39 min
Bit rate : 82 b/s
Count of elements : 1775
Stream size : 59.9 KiB (0%)
Language : English
Default : No
Forced : No

Menu
00:00:00.000 : en:
00:03:03.391 : en:
00:10:25.458 : en:
00:20:38.862 : en:
00:29:31.102 : en:
00:41:30.154 : en:
00:49:40.060 : en:
00:57:18.977 : en:
01:05:28.633 : en:
01:10:08.078 : en:
01:14:33.302 : en:
01:18:06.682 : en:
01:21:23.378 : en:
01:27:03.134 : en:
01:34:43.386 : en:
01:40:51.045 : en:
1 доріжка - запис - Sando7 , зведення - -_-В_E_N_D_E_R-_-
2 доріжка - patriot2305
Субтитри: - kinoreliz

Джерело: &
Особиста оцінка: 8 - мені сподобалося


 Трекер:    Зареєстрований   

Завантажити / скачати фільм українською



відео для новачків



 Зареєстрований:   2018-05-07 19:27
 Розмір:   2.68 GB 
 Оцінка фільму:   9.8/10 (Голосів: 10)
   
Інші релізи
   Старперці / Last Vegas (2013) 2xUkr/Eng | Sub Ukr/Eng 21jumpstreet  0 / 0   2.14 GB   2018-05-02 17:03 
   Старперці / Last Vegas (2013) DVD5 Ukr/Eng | Sub Ukr/Eng/Rus kinoreliz  0 / 0   4.18 GB   2014-02-24 10:06 
   Старперці / Last Vegas (2013) AVC patriot2305  3 / 0   1.67 GB   2014-01-19 19:51 
   Старперці / Last Vegas (2013) 720p Ukr/Eng Sando7  2 / 0   3.87 GB   2014-01-12 00:34 
   Старперці / Last Vegas (2013) patriot2305  4 / 0   1.44 GB   2014-01-11 23:49 
staf777 
Відео Гуртом - підтримка та поширення
Відео Гуртом - підтримка та поширення


З нами з: 16.11.16
Востаннє: 22.11.19
Повідомлень: 3034

2019-07-07 19:41  
На днях додам нове озвучення
Ваш часовий пояс: GMT + 2 Години

Нова тема   Відповісти