Сльози сонця / Tears of the Sun (2003) 720p 3xUkr/Eng | Sub Eng

Нові коментарі

Нова тема   Відповісти
Останній раз роздавалося Python_3.2 (2020-05-28)
Автор Повідомлення
staf777 
Відео Гуртом - підтримка та поширення
Відео Гуртом - підтримка та поширення


З нами з: 16.11.16
Востаннє: 25.05.20
Повідомлень: 3725

2018-05-07 18:19  
Сльози сонця / Tears of the Sun (2003) 720p 3xUkr/Eng | Sub Eng

Сльози сонця / Tears of the Sun (2003) 720p 3xUkr/Eng | Sub Eng
Альтернативні українські постери:







Жанр: бойовик, драма, трилер, військовий
Країна: США



Кінокомпанія: Revolution Studios
Режисер: Антуан Фукуа
Актори: Брюс Вілліс, Моніка Беллуччі, Коул Хаузер, Імонн Вокер, Джонні Месснер

Сюжет:
Перед лейтенантом Вотерсом, досвідченим командиром загону Морських котиків, ставлять майже нездійсненну задачу - проникнути в саме серце Нігерії. Задача - розшукати і звільнити з полону лікаря. Коли вони знаходять нещасну жінку в забутому селищі, виявляється, що характер операції треба терміново міняти: лікар заявляє, що покине джунглі, лише тоді коли разом з нею солдати звільнять ще 70 біженців.


Тривалість: 02:00:55
Якість: 720p
Відео:
кодек:
розмір кадру: 1280x534
бітрейт: 7165 кб/с

Аудіо # 1:
мова: українська
переклад: двоголосий закадровий
кодек: 2.0
бітрейт: 192 кб/с

Аудіо # 2:
мова: українська
переклад: багатоголосий закадровий
кодек: 2.0
бітрейт: 192 кб/с

Аудіо # 3:
мова: українська
переклад: багатоголосий закадровий
кодек: 2.0
бітрейт: 192 кб/с

Аудіо # 4:
мова: англійська
переклад: оригінал
кодек: 5.1
бітрейт: 448 кб/с

Субтитри:
мова: англійська
тип: програмні (м'які)
формат: *.srt
Info
General
Unique ID : 172002193077339927754623826197884005017 (0x81666ADBB2222D7C98D786AF935D6A99)
Complete name : H:\Tears of the Sun (2003) 720p [3xUKR_ENG] [Hurtom].
Format :
Format version : Version 4 / Version 2
File size : 6.92 GiB
Duration : 2 h 0 min
Overall bit rate : 8 191 kb/s
Movie name : Tears of the Sun (2003) 720p [3xUKR_ENG] [Hurtom]
Encoded date : UTC 2018-05-07 14:21:13
Writing application : v9.8.0 ('Kuglblids') 64bit
Writing library : libebml v1.3.4 + v1.4.5
Cover : Yes
Attachments : cover.jpg

Video
ID : 1
Format : AVC
Format/Info : Advanced Video Codec
Format profile : [email protected]
Format settings : CABAC / 11 Ref Frames
Format settings, CABAC : Yes
Format settings, ReFrames : 11 frames
Codec ID : V_MPEG4/ISO/AVC
Duration : 2 h 0 min
Bit rate : 7 165 kb/s
Width : 1 280 pixels
Height : 534 pixels
Display aspect ratio : 2.40:1
Frame rate mode : Constant
Frame rate : 23.976 (24000/1001) FPS
Color space : YUV
Chroma subsampling : 4:2:0
Bit depth : 8 bits
Scan type : Progressive
Bits/(Pixel*Frame) : 0.437
Stream size : 6.05 GiB (87%)
Title : Slezy solnca.(2003)..720p.
Writing library : core 148 r2692 64f4e24
Encoding settings : cabac=1 / ref=11 / deblock=1:-3:-3 / analyse=0x3:0x133 / me=umh / subme=11 / psy=1 / psy_rd=1.00:0.10 / mixed_ref=1 / me_range=32 / chroma_me=1 / trellis=2 / 8x8dct=1 / cqm=0 / deadzone=21,11 / fast_pskip=0 / chroma_qp_offset=-3 / threads=6 / lookahead_threads=1 / sliced_threads=0 / nr=0 / decimate=1 / interlaced=0 / bluray_compat=0 / constrained_intra=0 / bframes=10 / b_pyramid=2 / b_adapt=2 / b_bias=0 / direct=3 / weightb=1 / open_gop=0 / weightp=2 / keyint=240 / keyint_min=23 / scenecut=40 / intra_refresh=0 / rc=crf / mbtree=0 / crf=16.8 / qcomp=0.60 / qpmin=0 / qpmax=69 / qpstep=4 / ip_ratio=1.40 / pb_ratio=1.30 / aq=2:0.90
Language : English
Default : Yes
Forced : No

Audio #1
ID : 2
Format : AC-3
Format/Info : Audio Coding 3
Codec ID : A_AC3
Duration : 2 h 0 min
Bit rate mode : Constant
Bit rate : 192 kb/s
Channel(s) : 2 channels
Channel positions : Front: L R
Sampling rate : 48.0 kHz
Frame rate : 31.250 FPS (1536 SPF)
Bit depth : 16 bits
Compression mode : Lossy
Stream size : 166 MiB (2%)
Title : [UA-DVO-1+1]
Language : Ukrainian
Service kind : Complete Main
Default : Yes
Forced : Yes

Audio #2
ID : 3
Format : AC-3
Format/Info : Audio Coding 3
Codec ID : A_AC3
Duration : 2 h 0 min
Bit rate mode : Constant
Bit rate : 192 kb/s
Channel(s) : 2 channels
Channel positions : Front: L R
Sampling rate : 48.0 kHz
Frame rate : 31.250 FPS (1536 SPF)
Bit depth : 16 bits
Compression mode : Lossy
Stream size : 166 MiB (2%)
Title : [UA-MVO-NEW CANAL]
Language : Ukrainian
Service kind : Complete Main
Default : No
Forced : No

Audio #3
ID : 4
Format : AC-3
Format/Info : Audio Coding 3
Codec ID : A_AC3
Duration : 2 h 0 min
Bit rate mode : Constant
Bit rate : 192 kb/s
Channel(s) : 2 channels
Channel positions : Front: L R
Sampling rate : 48.0 kHz
Frame rate : 31.250 FPS (1536 SPF)
Bit depth : 16 bits
Compression mode : Lossy
Stream size : 166 MiB (2%)
Title : [UA-MVO-AMC]
Language : Ukrainian
Service kind : Complete Main
Default : No
Forced : No

Audio #4
ID : 5
Format : AC-3
Format/Info : Audio Coding 3
Codec ID : A_AC3
Duration : 2 h 0 min
Bit rate mode : Constant
Bit rate : 448 kb/s
Channel(s) : 6 channels
Channel positions : Front: L C R, Side: L R, LFE
Sampling rate : 48.0 kHz
Frame rate : 31.250 FPS (1536 SPF)
Bit depth : 16 bits
Compression mode : Lossy
Stream size : 387 MiB (5%)
Language : English
Service kind : Complete Main
Default : No
Forced : No

Text
ID : 6
Format : UTF-8
Codec ID : S_TEXT/UTF8
Codec ID/Info : UTF-8 Plain Text
Duration : 1 h 51 min
Bit rate : 36 b/s
Count of elements : 999
Stream size : 30.0 KiB (0%)
Language : English
Default : No
Forced : No

Menu
00:00:00.000 : en:00:00:00.000
00:07:31.826 : en:00:07:31.826
00:15:26.467 : en:00:15:26.467
00:23:23.569 : en:00:23:23.569
00:30:12.811 : en:00:30:12.811
00:36:49.666 : en:00:36:49.666
00:45:13.544 : en:00:45:13.544
00:53:35.879 : en:00:53:35.879
01:03:13.081 : en:01:03:13.081
01:09:24.494 : en:01:09:24.494
01:16:02.892 : en:01:16:02.892
01:24:27.604 : en:01:24:27.604
01:32:14.821 : en:01:32:14.821
01:39:17.827 : en:01:39:17.827
01:44:19.503 : en:01:44:19.503
01:48:34.925 : en:01:48:34.925
Скріншоти



Подяки: за запис з Нового та amc - slavik_v_z , за синхронізацію - Arsenfpu
За доріжку від Інтера дякую п. _oles, slavik_v_z
За постер дякую п. bober-mober та hellforces

Джерело: &
Особиста оцінка: 8 - мені сподобалося


Срібний реліз (на рейтинг впливає 50% завантаженого)
 Трекер:    Зареєстрований   

Завантажити / скачати фільм українською



відео для новачків



 Зареєстрований:   2018-05-07 18:19
 Розмір:   6.92 GB 
 Оцінка фільму:   10/10 (Голосів: 10)
   
Panther2214 
Попереджень: 1
Попереджень: 1 


З нами з: 29.09.17
Востаннє: 27.05.20
Повідомлень: 436

2018-08-23 00:48  
Сюжет: терміново міняти - терміново змінювати, так краще.....

Додано через 58 хвилин 29 секунд:

Це мабуть найкращий фільм про розвідку, війну серед яких я бачив і порівняв з іншими, ніякі так не зачепили крім одного фільму Врятувати рядового Раяна, фільм побудований на емоціях та відваги у якому значну роль відіграв герой лейтенант, взявши ініціативу у свої руки порушуючи наказ зумів зі своєю командою врятувати біженців та дотриматись обіцянки, яку дав померлому товаришу у кривавому бою, місцями печально без кровопролиття не обійтись все ж таки війна, фільм вартий уваги.. перегляду та однозначно в колекцію..... Тут такої оцінки не існує, щоб оцінити за десятибальною шкалою цей шедевр....

Ваш часовий пояс: GMT + 2 Години

Нова тема   Відповісти