Нічні ігри / Game Night (2018)

Нові коментарі

Нова тема   Відповісти
Автор Повідомлення
Anonymous 







2018-05-06 20:08  
Нічні ігри / Game Night (2018)

Нічні ігри / Game Night (2018)


Жанр: трилер, комедія, кримінальний, детектив
Країна: США



Кінокомпанія: Access Entertainment, Access Industries, Aggregate Films
Режисер: Джон Френсіс Делі / John Francis Daley, Джонатан М. Голдштейн / Jonathan Goldstein
Актори: Джейсон Бейтман / Jason Bateman, Рейчел МакАдамс / Rachel McAdams, Кайл Чандлер /Kyle Chandler, Шерон Хорган / Sharon Horgan, Біллі Магнуссен / Billy Magnussen, Ламорн Морріс / Lamorne Morris, Кайлі Банбері / Kylie Bunbury, Джессі Племонс / Jesse Plemons, Майкл Голл / Michael C. Hall, Денні Г'юстон / Danny Huston та інші

Сюжет:
Кілька пар люблять регулярно збиратися разом для вечора ігор. Але в один з таких вечорів їм доводиться розслідувати справжнє вбивство.
Офіційні українські промо та трейлер:

промо:


трейлер:

Рейтинг MPAA: R - особам до 17 років обов'язкова присутність батьків або дорослого опікуна
Вікова категорія: 16+
Тривалість: 01:40:06
Якість: [Джерело: Remux]
Відео:
кодек:
розмір кадру: 720x304
бітрейт: 1984 кб/с

Аудіо:
мова: українська
переклад: професійний дубльований | студія Postmodern
кодек: 2.0 [стерео]
бітрейт: 192 кб/с
Інформація про дубляж
Переклад: Сергій Ковальчук
Режисер дубляжу: Людмила Петриченко
Звукорежисер: Андрій Жолуденко
Звукорежисер перезапису: Юрій Антонов
Ролі дублювали: Андрій Твердак, Катерина Брайковська, Юрій Кудрявець, Роман Чорний, Катерина Буцька, Олег Лепенець, Світлана Шекера, Дмитро Гаврилов та інші.

Фільм дубльовано компанією Postmodern.
Субтитри:
мова: українська (форсовані)
тип: програмні (м'які)
формат: *.srt
Info
Код:
General
Complete name               : Game Night (2018) [Ukr] [Hurtom].avi
Format                      : AVI
Format/Info                 : Audio Video Interleave
File size                   : 1.53 GiB
Duration                    : 1 h 40 min
Overall bit rate            : 2 185 kb/s
Movie name                  : Нічні ігри / Game Night (2018) [Ukr] [Hurtom]
Genre                       : трилер, детектив, кримінальний, комедія
Recorded date               : 04.06.2018
Writing application         : VirtualDubModUkr 1.5.10.2 (build 2542/release)
Writing library             : VirtualDubMod build 2542/release
Comment                     : https://toloka.to/t89775

Video
ID                          : 0
Format                      : MPEG-4 Visual
Format profile              : Advanced [email protected]
Format settings             : BVOP1
Format settings, BVOP       : 1
Format settings, QPel       : No
Format settings, GMC        : No warppoints
Format settings, Matrix     : Default (MPEG)
Codec ID                    :
Codec ID/Hint               :
Duration                    : 1 h 40 min
Bit rate                    : 1 984 kb/s
Width                       : 720 pixels
Height                      : 304 pixels
Display aspect ratio        : 2.35:1
Frame rate                  : 23.976 (24000/1001) FPS
Color space                 : YUV
Chroma subsampling          : 4:2:0
Bit depth                   : 8 bits
Scan type                   : Progressive
Compression mode            : Lossy
Bits/(Pixel*Frame)          : 0.378
Stream size                 : 1.39 GiB (91%)
Writing library             : 67

Audio
ID                          : 1
Format                      : AC-3
Format/Info                 : Audio Coding 3
Codec ID                    : 2000
Duration                    : 1 h 40 min
Bit rate mode               : Constant
Bit rate                    : 192 kb/s
Channel(s)                  : 2 channels
Channel positions           : Front: L R
Sampling rate               : 48.0 kHz
Frame rate                  : 31.250 FPS (1536 SPF)
Bit depth                   : 16 bits
Compression mode            : Lossy
Stream size                 : 137 MiB (9%)
Alignment                   : Split accross interleaves
Interleave, duration        : 42  ms (1.00 video frame)
Interleave, preload duratio : 500  ms
Title                       : UKR DUB [Postmodern, iTunes]
Service kind                : Complete Main
Ще скріншоти:
Джерело:
Подяка Electroz'у за українську доріжку та форсовані субтитри.

Підтримати купівлю інших фільмів можна тут.


13.05.2018 реліз оновлено до 'у
04.06.2018 реліз оновлено - замінено стереозвук з на якісніший з , додано українські форсовані субтитри.


 Трекер:    Зареєстрований   

Завантажити / скачати фільм українською



відео для новачків



 Зареєстрований:   2018-06-04 12:38
 Розмір:   1.53 GB 
 Оцінка фільму:   8.8/10 (Голосів: 118)
   
Інші релізи
   Нічні ігри / Game Night (2018) 720p Ukr/Eng | Sub Eng 11FrYkT  30 / 0   5.31 GB   2018-06-02 21:54 
   Нічні ігри / Game Night (2018) AVC Ukr/Eng | Sub Eng 11FrYkT  49 / 0   1.45 GB   2018-06-02 17:15 
   Нічні ігри / Game Night (2018) 1080p-mini H.265 Ukr/Eng | Sub Eng ukr_anonymous  21 / 0   3.5 GB   2018-05-23 12:21 
   Нічні ігри / Game Night (2018) 1080p Ukr/Eng | Sub Eng staf777  17 / 0   11.32 GB   2018-05-13 11:53 
   Нічні ігри / Game Night (2018) Remux 1080p Ukr/Eng | Sub Eng staf777  8 / 0   23.52 GB   2018-05-13 11:03 
kuts-vv 
Поважний учасник


З нами з: 11.12.11
Востаннє: 11.12.18
Повідомлень: 187

2018-05-08 21:06  
Нічого так. Живенький фільм. Гарна гра акторів та й взагалі... Дякую за реліз.
Gio J 
Новенький


З нами з: 12.02.18
Востаннє: 10.05.18
Повідомлень: 1

2018-05-09 20:03  
Дякую. Дуже чекав цю стрiчку
ss14spqr 
Новенький


З нами з: 29.12.14
Востаннє: 27.10.18
Повідомлень: 2

2018-05-09 20:13  
стрічка повне лайно. не варта Вашого часу
kabanchik_v 
Частий відвідувач


З нами з: 09.05.13
Востаннє: 09.12.18
Повідомлень: 28

2018-05-12 16:14  
кумедний фільм, який вартий уваги
o-posh 
Частий відвідувач


З нами з: 03.05.11
Востаннє: 11.12.18
Повідомлень: 36

2018-05-12 17:26  
Ну що тут сказати, типова амереканська комедія (жарти дуже плоскі). Враховуючи акторський склад, очікував більшого. Оцінка 7/10
Anonymous 







2018-05-13 09:13  
Реліз оновлено до 'у
Svetik-semitsvetik 
Новенький


З нами з: 06.07.17
Востаннє: 10.12.18
Повідомлень: 15

2018-05-14 17:47  
Таке собі... Кіно на один раз...
las33 
Новенький


З нами з: 05.06.13
Востаннє: 09.12.18
Повідомлень: 8

2018-05-15 09:14  
одна з найкращих сучасних комедій, яку я бачив за декілька останніх років!!!
lisovy4ok 
Новенький


З нами з: 07.11.12
Востаннє: 01.11.18
Повідомлень: 3

2018-05-20 17:31  
Мені фільм сподобався, дякую.
qarty1 
Свій


З нами з: 01.11.09
Востаннє: 11.12.18
Повідомлень: 118

2018-05-20 21:43  
давно я так не сміявся, трішки кінець здутий але комедія вийшла чудoва 8\10
vadimsa 
Новенький


З нами з: 24.04.14
Востаннє: 04.11.18
Повідомлень: 9

2018-05-21 09:32  
Звичайне одноразове розважальне кіно, подивитись можно.
Ванько 
VIP


З нами з: 27.08.09
Востаннє: 11.12.18
Повідомлень: 319

2018-05-28 13:35  
Не сподобався фільм. Не смішно. Певно, старість.
andriuha80 
Свій


З нами з: 21.03.14
Востаннє: 10.12.18
Повідомлень: 64

2018-05-28 21:31  
Легка, якісна комедія. Мені сподобалось.

9/10

Anonymous 







2018-06-04 12:40  
Реліз оновлено - замінено стереозвук з на якісніший з , додано українські форсовані субтитри.
gashyk 
Свій


З нами з: 19.03.10
Востаннє: 09.12.18
Повідомлень: 105

2018-06-04 16:58  
Залізобетонний шлак.
Pavel UA 
Частий відвідувач


З нами з: 23.12.17
Востаннє: 05.12.18
Повідомлень: 25

2018-06-04 18:29  
Для вечірнього перегляду згодиться
fersik 
Новенький


З нами з: 30.08.15
Востаннє: 11.12.18
Повідомлень: 12

2018-06-06 20:09  
Чекав більшого (прочитавши коментарі). Спочатку, начебто, було норм, а потім навіть і не пам"ятаю. Але свою думку не нав"язую.
Ваш часовий пояс: GMT + 2 Години

Нова тема   Відповісти