Нічні ігри / Game Night (2018) 1080p Ukr/Eng | Sub Eng

Нові коментарі

Нова тема   Відповісти
Автор Повідомлення
staf777 
Попереджень: 1
Попереджень: 1 


З нами з: 16.11.16
Востаннє: 22.10.18
Повідомлень: 1649

2018-05-06 08:07  
Нічні ігри / Game Night (2018) 1080p Ukr/Eng | Sub Eng

Нічні ігри / Game Night (2018) 1080p Ukr/Eng | Sub Eng


Жанр: детектив, комедія, кримінал, трилер
Країна: США



Кінокомпанія: Access Entertainment, Access Industries, Aggregate Films
Режисер: Джон Френсіс Дейлі, Джонатан М. Голдштейн
Актори: Джейсон Бейтман, Рейчел МакАдамс, Кайл Чандлер, Шерон Хорган, Біллі Магнуссен, Ламорн Морріс, Кайлі Банбері, Джессі Племонс, Майкл С. Холл, Денні Х'юстон

Сюжет:
Кілька пар люблять регулярно збиратися разом для вечора ігор. Але в один з таких вечорів їм доводиться розслідувати справжнє вбивство.


Тривалість: 01:40:02
Якість: 1080p
Відео:
кодек:
розмір кадру: 1920x800
бітрейт: 14.5 Mб/с

Аудіо # 1:
мова: українська
переклад: професійний дубльований
кодек: 2.0
бітрейт: 192 кб/с

Аудіо # 2:
мова: англійська
переклад: оригінал
кодек: 5.1
бітрейт: 1509 кб/с

Субтитри # 1-2:
мова: англійська
тип: програмні (м'які)
формат: *.srt
Info
General
Unique ID : 236850442343383478774017514346109738160 (0xB22FBC65957F827180932D5B78701CB0)
Complete name : H:\» HD українською » Фільми в HD\Трилер\Game Night (2018) 1080p [Ukr][Eng][ Sub Eng][Hurtom].
Format :
Format version : Version 4 / Version 2
File size : 11.3 GiB
Duration : 1 h 40 min
Overall bit rate : 16.2 Mb/s
Movie name : Game Night (2018) 1080p [Ukr][Eng][ Sub Eng][Hurtom]
Encoded date : UTC 2018-05-13 09:07:22
Writing application : v9.8.0 ('Kuglblids') 64bit
Writing library : libebml v1.3.4 + v1.4.5
Cover : Yes
Attachments : cover.jpg

Video
ID : 1
Format : AVC
Format/Info : Advanced Video Codec
Format profile : [email protected]
Format settings : CABAC / 5 Ref Frames
Format settings, CABAC : Yes
Format settings, ReFrames : 5 frames
Codec ID : V_MPEG4/ISO/AVC
Duration : 1 h 40 min
Bit rate : 14.5 Mb/s
Width : 1 920 pixels
Height : 800 pixels
Display aspect ratio : 2.40:1
Frame rate mode : Constant
Frame rate : 23.976 (24000/1001) FPS
Color space : YUV
Chroma subsampling : 4:2:0
Bit depth : 8 bits
Scan type : Progressive
Bits/(Pixel*Frame) : 0.394
Stream size : 10.1 GiB (89%)
Writing library : core 155 r2901 7d0ff22
Encoding settings : cabac=1 / ref=5 / deblock=1:-3:-3 / analyse=0x3:0x133 / me=umh / subme=11 / psy=1 / psy_rd=1.05:0.00 / mixed_ref=1 / me_range=32 / chroma_me=1 / trellis=2 / 8x8dct=1 / cqm=0 / deadzone=21,11 / fast_pskip=0 / chroma_qp_offset=-2 / threads=12 / lookahead_threads=3 / sliced_threads=0 / nr=0 / decimate=0 / interlaced=0 / bluray_compat=0 / constrained_intra=0 / bframes=10 / b_pyramid=2 / b_adapt=2 / b_bias=0 / direct=3 / weightb=1 / open_gop=0 / weightp=2 / keyint=250 / keyint_min=24 / scenecut=40 / intra_refresh=0 / rc_lookahead=250 / rc=2pass / mbtree=0 / bitrate=14500 / ratetol=1.0 / qcomp=0.62 / qpmin=0 / qpmax=69 / qpstep=4 / cplxblur=20.0 / qblur=0.5 / vbv_maxrate=62500 / vbv_bufsize=78125 / nal_hrd=none / filler=0 / ip_ratio=1.30 / pb_ratio=1.20 / aq=3:0.80
Language : English
Default : Yes
Forced : No

Audio #1
ID : 2
Format : AC-3
Format/Info : Audio Coding 3
Codec ID : A_AC3
Duration : 1 h 40 min
Bit rate mode : Constant
Bit rate : 192 kb/s
Channel(s) : 2 channels
Channel positions : Front: L R
Sampling rate : 48.0 kHz
Frame rate : 31.250 FPS (1536 SPF)
Bit depth : 16 bits
Compression mode : Lossy
Stream size : 137 MiB (1%)
Title : [UA-DUB]
Language : Ukrainian
Service kind : Complete Main
Default : Yes
Forced : Yes

Audio #2
ID : 3
Format :
Format/Info : Digital Theater Systems
Codec ID : A_DTS
Duration : 1 h 40 min
Bit rate mode : Constant
Bit rate : 1 509 kb/s
Channel(s) : 6 channels
Channel positions : Front: L C R, Side: L R, LFE
Sampling rate : 48.0 kHz
Frame rate : 93.750 FPS (512 SPF)
Bit depth : 24 bits
Compression mode : Lossy
Stream size : 1.06 GiB (9%)
Title : Original
Language : English
Default : No
Forced : No

Text #1
ID : 4
Format : UTF-8
Codec ID : S_TEXT/UTF8
Codec ID/Info : UTF-8 Plain Text
Duration : 1 h 39 min
Bit rate : 92 b/s
Count of elements : 2245
Stream size : 67.3 KiB (0%)
Title : Full
Language : English
Default : No
Forced : No

Text #2
ID : 5
Format : UTF-8
Codec ID : S_TEXT/UTF8
Codec ID/Info : UTF-8 Plain Text
Duration : 1 h 39 min
Bit rate : 99 b/s
Count of elements : 2205
Stream size : 72.3 KiB (0%)
Title : SDH
Language : English
Default : No
Forced : No

Menu
00:00:00.000 : en:00:00:00.000
00:10:35.093 : en:00:10:35.093
00:18:37.116 : en:00:18:37.116
00:32:24.860 : en:00:32:24.860
00:42:40.308 : en:00:42:40.308
00:52:27.353 : en:00:52:27.353
01:02:01.301 : en:01:02:01.301
01:11:50.932 : en:01:11:50.932
01:22:36.743 : en:01:22:36.743
01:32:54.903 : en:01:32:54.903
Скріншоти





Подяка AngryBirdsUA, Hanway'ю за доріжку та igor911 за допомогу

Підтримати купівлю інших фільмів можна тут.

Джерело: &
Особиста оцінка: 0 - не дивився


 Трекер:    Зареєстрований   

Завантажити / скачати фільм українською



відео для новачків



 Зареєстрований:   2018-05-13 12:53
 Розмір:   11.32 GB 
 Оцінка фільму:   9.3/10 (Голосів: 52)
   
Інші релізи
   Нічні ігри / Game Night (2018) igor911  54 / 0   1.53 GB   2018-06-04 13:38 
   Нічні ігри / Game Night (2018) 720p Ukr/Eng | Sub Eng 11FrYkT  36 / 0   5.31 GB   2018-06-02 22:54 
   Нічні ігри / Game Night (2018) AVC Ukr/Eng | Sub Eng 11FrYkT  52 / 0   1.45 GB   2018-06-02 18:15 
   Нічні ігри / Game Night (2018) 1080p-mini H.265 Ukr/Eng | Sub Eng ukr_anonymous  23 / 0   3.5 GB   2018-05-23 13:21 
   Нічні ігри / Game Night (2018) Remux 1080p Ukr/Eng | Sub Eng staf777  7 / 0   23.52 GB   2018-05-13 12:03 
bot 
робот


З нами з: 30.09.07
Востаннє: 26.05.05
Повідомлень: 19985

2018-05-06 22:51  
Тему перенесено з Анонси релізів до форуму Фільми в HD


staf777

Skiff_1956 
Свій


З нами з: 14.09.14
Востаннє: 21.10.18
Повідомлень: 62

2018-05-07 22:56  
На 01:24:32 пролунали мати?
staf777 
Попереджень: 1
Попереджень: 1 


З нами з: 16.11.16
Востаннє: 22.10.18
Повідомлень: 1649

2018-05-13 12:55  
Оновив відеоряд на 1080p 
slavas 
Новенький


З нами з: 05.04.11
Востаннє: 19.10.18
Повідомлень: 14

2018-06-25 22:29  
Непогане кіно
Ваш часовий пояс: GMT + 2 Години

Нова тема   Відповісти