Кролик Петрик / Peter Rabbit (2018) Ukr/Eng | Sub Ukr/Eng

Нові коментарі

Нова тема   Відповісти
Автор Повідомлення
Anonymous 







2018-05-05 18:57  
Кролик Петрик / Peter Rabbit (2018) Ukr/Eng | Sub Ukr/Eng

Усі українські постери:





















Жанр: анімація, комедія, пригодницький, сімейний
Країна: Австралія, США



Кінокомпанія: Sony / Columbia, Animal Logic, Sony Pictures Animation
Режисер: Вілл Ґлак / Will Gluck
Актори: Джеймс Корден / James Corden, Донал Глісон / Domhnall Gleeson, Роуз Бірн / Rose Byrne, Сем Нілл / Sam Neill, Марґо Робі / Margot Robbie, Елізабет Дебікі / Elizabeth Debicki, Дейзі Рідлі / Daisy Ridley, Колін Муді / Colin Moody, Файсаль Баззі / Fayssal Bazzi, Девід Венем / David Wenham, Браян Браун / Bryan Brown та інші

Сюжет:
Світовий бестселер про дивовижні пригоди кролика Петрика та його друзів оживе! Заклятий ворог кроликів містер МакҐрегор не бажає ділитися врожаєм з лісовими мешканцями, а навпаки мріє про пироги з кролятиною. І тоді пухнасті вирішують дати відсіч безжальному фермерові…
Офіційні українські промо та трейлери:

промо №1


промо № 2:


трейлер № 1


трейлер № 2



Рейтинг MPAA: PG - рекомендується присутність батьків
Вікова категорія: 6+
Тривалість: 01:34:42
Якість: [Hurtom, джерело - Remux]
Відео:
кодек:
розмір кадру: 720 х 304
бітрейт: 2098 кб/с

Аудіо # 1:
мова: українська
переклад: професійний дубльований | студія LeDoyen
кодек: 5.1
бітрейт: 448 кб/с
Інформація про дубляж
Ролі дублювали: Євген Кошовий (Кролик Петрик / Джеймс Корден), Ірма Вітовська (Пані Гороїжицька), Ольга Цибульська (Пташечка) та інші
Аудіо # 2:
мова: англійська
переклад: оригінал
кодек: 5.1
бітрейт: 448 кб/с

Субтитри # 1-2:
мова: українська (форсовані, повні)
тип: програмні (м'які)
формат: *.srt

Субтитри # 3-4:
мова: англійська (повні, SDH)
тип: програмні (м'які)
формат: *.srt
Info:
Код:
General
Complete name               : Peter Rabbit (2018) [Ukr,Eng] [Hurtom].avi
Format                      : AVI
Format/Info                 : Audio Video Interleave
Format profile              : OpenDML
File size                   : 1.99 GiB
Duration                    : 1 h 34 min
Overall bit rate            : 3 012 kb/s
Movie name                  : Кролик Петрик / Peter Rabbit (2018) [Ukr,Eng] [Hurtom]
Genre                       : анімаційний, комедія, пригодницький, сімейний
Writing application         : VirtualDubModUkr 1.5.10.2 (build 2542/release)
Writing library             : VirtualDubMod build 2542/release
Comment                     : https://toloka.to/t89742

Video
ID                          : 0
Format                      : MPEG-4 Visual
Format profile              : Advanced [email protected]
Format settings             : BVOP1
Format settings, BVOP       : 1
Format settings, QPel       : No
Format settings, GMC        : No warppoints
Format settings, Matrix     : Default (MPEG)
Codec ID                    :
Codec ID/Hint               :
Duration                    : 1 h 34 min
Bit rate                    : 2 098 kb/s
Width                       : 720 pixels
Height                      : 304 pixels
Display aspect ratio        : 2.35:1
Frame rate                  : 23.976 (24000/1001) FPS
Color space                 : YUV
Chroma subsampling          : 4:2:0
Bit depth                   : 8 bits
Scan type                   : Progressive
Compression mode            : Lossy
Bits/(Pixel*Frame)          : 0.400
Stream size                 : 1.39 GiB (70%)
Writing library             : 67

Audio #1
ID                          : 1
Format                      : AC-3
Format/Info                 : Audio Coding 3
Codec ID                    : 2000
Duration                    : 1 h 34 min
Bit rate mode               : Constant
Bit rate                    : 448 kb/s
Channel(s)                  : 6 channels
Channel positions           : Front: L C R, Side: L R, LFE
Sampling rate               : 48.0 kHz
Frame rate                  : 31.250 FPS (1536 SPF)
Bit depth                   : 16 bits
Compression mode            : Lossy
Stream size                 : 303 MiB (15%)
Alignment                   : Split accross interleaves
Interleave, duration        : 42  ms (1.00 video frame)
Interleave, preload duratio : 500  ms
Title                       : UKR DUB [LeDoyen, Blu-ray]
Service kind                : Complete Main

Audio #2
ID                          : 2
Format                      : AC-3
Format/Info                 : Audio Coding 3
Codec ID                    : 2000
Duration                    : 1 h 34 min
Bit rate mode               : Constant
Bit rate                    : 448 kb/s
Channel(s)                  : 6 channels
Channel positions           : Front: L C R, Side: L R, LFE
Sampling rate               : 48.0 kHz
Frame rate                  : 31.250 FPS (1536 SPF)
Bit depth                   : 16 bits
Compression mode            : Lossy
Stream size                 : 303 MiB (15%)
Alignment                   : Split accross interleaves
Interleave, duration        : 42  ms (1.00 video frame)
Interleave, preload duratio : 500  ms
Title                       : ENG, Original
Service kind                : Complete Main
Скріншоти
будуть незабаром
Джерело: &
Робота з субтитрами: розпізнавання - Electroz, компіляція форсованих - madagaskar1, редагування - igor911.


 Трекер:    Зареєстрований   

Завантажити / скачати фільм українською



відео для новачків



 Зареєстрований:   2018-05-05 19:11
 Розмір:   1.99 GB 
 Оцінка фільму:   9.6/10 (Голосів: 54)
   
Інші релізи
bmarynap 
Новенький


З нами з: 31.01.15
Востаннє: 13.03.19
Повідомлень: 18

2018-05-14 15:55  
Love, Love, Love !!!!!
Україночка* 
Новенький


З нами з: 26.11.16
Востаннє: 18.04.19
Повідомлень: 2

2018-11-04 20:26  
Як включити український переклад? У мене говорить кількома мовами відразу.
Anonymous 







2018-11-04 21:12  
Україночка* написано:
У мене говорить кількома мовами відразу

Таке спостерігається при використанні вбудованого у windows windows media player. Використовуйте будь-який інший програвач, зазвичай вони вміють відтворювати файли з кількома звуковими доріжками. Рекомендую MPC-HC, PotPlayer, KMPlayer, VLC.

Україночка* 
Новенький


З нами з: 26.11.16
Востаннє: 18.04.19
Повідомлень: 2

2018-11-06 12:27  
Anonymous
Дякую!

Ваш часовий пояс: GMT + 2 Години

Нова тема   Відповісти