Чорна Пантера / Black Panther (2018) 1080p H.265 Ukr/Eng | Sub Eng — HD українською

Чорна Пантера / Black Panther (2018) 1080p H.265 Ukr/Eng | Sub Eng

Нові коментарі

Нова тема   Відповісти
Автор Повідомлення
ukr_anonymous 
Попереджень: 1
Попереджень: 1 


З нами з: 17.04.18
Востаннє: 15.08.18
Повідомлень: 191

2018-05-05 00:56  
Чорна Пантера / Black Panther (2018) 1080p H.265 Ukr/Eng | Sub Eng




Альтернативні постери


«Хай живе король»




Жанр: бойовик, пригоди, фантастика
Країна: США



Кінокомпанія: Marvel Studios, Walt Disney Pictures
Режисер: Райан Куглер
Актори: Чедвік Боузман, Майкл Б. Джордан, Люпіта Ніонго, Данай Джекесай Гуріра, Мартін Фріман, Деніел Калуя, Летішіа Райт, Вінстон Д'юк, Стерлінг К. Браун, Анджела Бассетт

Сюжет:
З першого погляду можна вирішити, що Ваканда - звичайна територія дикої Африки, але це не так. Тут, в надрах пустельних земель, ховаються поклади унікального металу, здатного поглинати вібрацію. Багато хто намагався дістатися до нього, плюндруючи все на своєму шляху і приносячи смерть аборигенам, але кожен раз таємничий дух савани - Чорна Пантера - вставав на захист пригноблених. Багато років потому біда знову приходить в Ваканду, і цього разу ворог заручився підтримкою сучасних технологій. Коли шансів майже не залишається, Т`Чалла, молодий принц Ваканди, дізнається, що саме йому належить відродити легенду і продовжити вічну боротьбу, надівши маску Чорної Пантери.


Тривалість: 02:14:33
Якість: HEVC [CHD]

Відео:
кодек: H.265 (HEVC)
розмір кадру: 1920 х 804
бітрейт: 5 157 кб/с
бітова глибина: 10 біт
Увага! Перед завантаженням переконайтесь, що ваш пристрій відтворення (та/або ПЗ) підтримують H.265 (HEVC) та 10 біт

Аудіо # 1:
мова: українська
переклад: професійний дубльований
кодек: 2.0
бітрейт: 192 кб/с

Аудіо # 2:
мова: англійська
переклад: оригінал
кодек: 5.1
бітрейт: 384 кб/с

Субтитри # 1-3: (Full, Forced, SDH)
мова: англійська
тип: програмні (м'які)
формат: *.srt
Info
Код:
General
Unique ID                                : 139790203973564359002125071072058518708 (0x692A9D2D8FD5A65797DA4FADF2E1ACB4)
Complete name                            : E:\video\Collection\Marvel\Кінематографічний Всесвіт Марвел [HEVC]\3.6 Black Panther (2018) 1080p H.265 [UKR_ENG].
Format                                   :
Format version                           : Version 4 / Version 2
File size                                : 5.39 GiB
Duration                                 : 2 h 14 min
Overall bit rate                         : 5 735 kb/s
Encoded date                             : UTC 2018-05-04 20:55:37
Writing application                      : v22.0.0 ('At The End Of The World') 64-bit
Writing library                          : libebml v1.3.5 + v1.4.8
Cover                                    : Yes
Attachments                              : cover.jpg

Video
ID                                       : 1
Format                                   : HEVC
Format/Info                              : High Efficiency Video Coding
Format profile                           : Main [email protected]@Main
Codec ID                                 : V_MPEGH/ISO/HEVC
Duration                                 : 2 h 14 min
Bit rate                                 : 5 157 kb/s
Width                                    : 1 920 pixels
Height                                   : 804 pixels
Display aspect ratio                     : 2.40:1
Frame rate mode                          : Constant
Frame rate                               : 23.976 (24000/1001) FPS
Original frame rate                      : 23.976 (23976/1000) FPS
Color space                              : YUV
Chroma subsampling                       : 4:2:0
Bit depth                                : 10 bits
Bits/(Pixel*Frame)                       : 0.139
Stream size                              : 4.85 GiB (90%)
Writing library                          : x265 2.7+15-b9f5b5d7bf95:[Windows][MSVC 1800][64 bit] 10bit
Encoding settings                        : cpuid=1173503 / frame-threads=3 / numa-pools=8 / wpp / no-pmode / no-pme / no-psnr / no-ssim / log-level=2 / input-csp=1 / input-res=1920x804 / interlace=0 / total-frames=0 / level-idc=0 / high-tier=1 / uhd-bd=0 / ref=6 / no-allow-non-conformance / repeat-headers / annexb / no-aud / no-hrd / info / hash=0 / no-temporal-layers / no-open-gop / min-keyint=23 / keyint=250 / gop-lookahead=0 / bframes=8 / b-adapt=2 / b-pyramid / bframe-bias=0 / rc-lookahead=24 / lookahead-slices=5 / scenecut=40 / radl=0 / no-intra-refresh / ctu=64 / min-cu-size=8 / no-rect / no-amp / max-tu-size=32 / tu-inter-depth=1 / tu-intra-depth=1 / limit-tu=0 / rdoq-level=0 / dynamic-rd=0.00 / no-ssim-rd / signhide / no-tskip / nr-intra=0 / nr-inter=0 / no-constrained-intra / no-strong-intra-smoothing / max-merge=2 / limit-refs=3 / no-limit-modes / me=3 / subme=7 / merange=48 / temporal-mvp / weightp / weightb / no-analyze-src-pics / deblock=0:0 / sao / no-sao-non-deblock / rd=4 / no-early-skip / rskip / no-fast-intra / no-tskip-fast / no-cu-lossless / no-b-intra / no-splitrd-skip / rdpenalty=0 / psy-rd=2.00 / psy-rdoq=0.00 / no-rd-refine / no-lossless / cbqpoffs=0 / crqpoffs=0 / rc=crf / crf=17.0 / qcomp=0.60 / qpstep=4 / stats-write=0 / stats-read=0 / ipratio=1.40 / pbratio=1.30 / aq-mode=3 / aq-strength=1.00 / cutree / zone-count=0 / no-strict-cbr / qg-size=32 / no-rc-grain / qpmax=69 / qpmin=0 / no-const-vbv / sar=0 / overscan=0 / videoformat=5 / range=0 / colorprim=2 / transfer=2 / colormatrix=2 / chromaloc=0 / display-window=0 / max-cll=0,0 / min-luma=0 / max-luma=1023 / log2-max-poc-lsb=8 / vui-timing-info / vui-hrd-info / slices=1 / no-opt-qp-pps / no-opt-ref-list-length-pps / no-multi-pass-opt-rps / scenecut-bias=0.05 / no-opt-cu-delta-qp / aq-motion / no-hdr / no-hdr-opt / no-dhdr10-opt / no-idr-recovery-sei / analysis-reuse-level=5 / scale-factor=0 / refine-intra=0 / refine-inter=0 / refine-mv=0 / no-limit-sao / ctu-info=0 / no-lowpass-dct / refine-mv-type=0 / copy-pic=1 / max-ausize-factor=1.0 / no-dynamic-refine
Language                                 : English
Default                                  : Yes
Forced                                   : No

Audio #1
ID                                       : 2
Format                                   : AC-3
Format/Info                              : Audio Coding 3
Codec ID                                 : A_AC3
Duration                                 : 2 h 14 min
Bit rate mode                            : Constant
Bit rate                                 : 192 kb/s
Channel(s)                               : 2 channels
Channel positions                        : Front: L R
Sampling rate                            : 48.0 kHz
Frame rate                               : 31.250 FPS (1536 SPF)
Bit depth                                : 16 bits
Compression mode                         : Lossy
Stream size                              : 185 MiB (3%)
Title                                    : 2.0 @ 192
Language                                 : Ukrainian
Service kind                             : Complete Main
Default                                  : Yes
Forced                                   : Yes

Audio #2
ID                                       : 3
Format                                   : AC-3
Format/Info                              : Audio Coding 3
Codec ID                                 : A_AC3
Duration                                 : 2 h 14 min
Bit rate mode                            : Constant
Bit rate                                 : 384 kb/s
Channel(s)                               : 6 channels
Channel positions                        : Front: L C R, Side: L R, LFE
Sampling rate                            : 48.0 kHz
Frame rate                               : 31.250 FPS (1536 SPF)
Bit depth                                : 16 bits
Compression mode                         : Lossy
Stream size                              : 370 MiB (7%)
Title                                    : 5.1 @ 384
Language                                 : English
Service kind                             : Complete Main
Default                                  : No
Forced                                   : No

Text #1
ID                                       : 4
Format                                   : UTF-8
Codec ID                                 : S_TEXT/UTF8
Codec ID/Info                            : UTF-8 Plain Text
Duration                                 : 2 h 14 min
Bit rate                                 : 42 b/s
Count of elements                        : 1585
Stream size                              : 41.6 KiB (0%)
Title                                    : Full
Language                                 : English
Default                                  : No
Forced                                   : No

Text #2
ID                                       : 5
Format                                   : UTF-8
Codec ID                                 : S_TEXT/UTF8
Codec ID/Info                            : UTF-8 Plain Text
Duration                                 : 2 h 14 min
Bit rate                                 : 49 b/s
Count of elements                        : 1835
Stream size                              : 48.2 KiB (0%)
Title                                    : SHD
Language                                 : English
Default                                  : No
Forced                                   : No

Text #3
ID                                       : 6
Format                                   : UTF-8
Codec ID                                 : S_TEXT/UTF8
Codec ID/Info                            : UTF-8 Plain Text
Duration                                 : 2 h 10 min
Bit rate                                 : 1 b/s
Count of elements                        : 68
Stream size                              : 1.15 KiB (0%)
Title                                    : Forced
Language                                 : English
Default                                  : No
Forced                                   : No

Menu
00:00:00.000                             : en:00:00:00.000
00:06:56.291                             : en:00:06:56.291
00:12:02.805                             : en:00:12:02.805
00:19:12.360                             : en:00:19:12.360
00:28:32.961                             : en:00:28:32.961
00:33:11.698                             : en:00:33:11.698
00:40:57.497                             : en:00:40:57.497
00:48:34.036                             : en:00:48:34.036
00:53:46.098                             : en:00:53:46.098
01:01:57.339                             : en:01:01:57.339
01:08:33.026                             : en:01:08:33.026
01:16:46.769                             : en:01:16:46.769
01:22:24.022                             : en:01:22:24.022
01:31:21.434                             : en:01:31:21.434
01:41:15.361                             : en:01:41:15.361
01:50:56.483                             : en:01:50:56.483
01:59:16.941                             : en:01:59:16.941
02:02:43.648                             : en:02:02:43.648

Screenshots



За придбану доріжку подяка сайту uafilm.tv.

Джерело:
Особиста оцінка: 10 - фільм - бомба


 Трекер:    Зареєстрований   

Завантажити / скачати фільм українською



відео для новачків



 Зареєстрований:   2018-05-05 00:56
 Розмір:   5.39 GB 
 Оцінка фільму:   8.1/10 (Голосів: 72)
   
Інші релізи
taraso23 
Частий відвідувач


З нами з: 29.12.12
Востаннє: 23.06.18
Повідомлень: 36

2018-05-05 12:58  
Кращу якість відео коли очікувати?
vovang6 
Свій


З нами з: 27.08.12
Востаннє: 15.08.18
Повідомлень: 145

2018-05-05 16:40  
Я не расист але чомусь не зачепило... Переглянув хвилин 20-30 і вимкнув.
Lyolic 
VIP


З нами з: 04.08.09
Востаннє: 15.08.18
Повідомлень: 262

2018-05-05 18:05  
taraso23
А що не так з відео? Чи Ви про 4К?

Свирид Опанасович 
Новенький


З нами з: 30.01.17
Востаннє: 15.08.18
Повідомлень: 4

2018-05-05 22:35  
На даний момент це найтупіший фільм від Марвел.
waldi-hurtom 
VIP


З нами з: 07.10.12
Востаннє: 14.08.18
Повідомлень: 794

2018-05-05 22:42  
1 з 10. Рочків так до 6.
anianihor 
Новенький


З нами з: 31.10.15
Востаннє: 10.08.18
Повідомлень: 1

2018-05-06 10:32  
Блу-рей має вийти 15 травня.
Maters 
VIP


З нами з: 27.03.12
Востаннє: 15.08.18
Повідомлень: 1478

2018-05-17 23:35  
waldi-hurtom
+

lunatiq 
Новенький


З нами з: 01.02.16
Востаннє: 13.08.18
Повідомлень: 9

2018-06-01 22:47  
vovang6Свирид Опанасович
згоден 100%

ukr_anonymous 
Попереджень: 1
Попереджень: 1 


З нами з: 17.04.18
Востаннє: 15.08.18
Повідомлень: 191

2018-06-01 23:59  
lunatiq написано:
згоден 100%

чому?

leon61 
Свій


З нами з: 09.09.08
Востаннє: 15.08.18
Повідомлень: 64

2018-06-02 00:07  
А мені в кіно сподобався)
Ваш часовий пояс: GMT + 2 Години

Нова тема   Відповісти