Реальна білка / The Nut Job (2014) Ukr/Eng | US Transfer

Нові коментарі

Нова тема   Відповісти
Автор Повідомлення
21jumpstreet 
VIP


З нами з: 03.07.12
Востаннє: 22.10.20
Повідомлень: 1320

2018-05-03 22:09  
Реальна білка / The Nut Job (2014) Ukr/Eng | US Transfer

Реальна білка / The Nut Job (2014) Ukr/Eng | US Transfer


Жанр: анімація, пригодницький, комедія
Країна: Канада, Південна Корея, США



Кінокомпанія: Gulfstream Pictures, Red Rover International, ToonBox Entertainment
Режисер: Пітер Лепеніотіс
Ролі озвучують: Віл Арнет, Брендан Фрейзер, Ліам Нісон, Кетрін Вейґл, Стівен Ленґ, Мая Рудольф, Джеф Данем, Ґебріел Іґлесіас, Сара Ґадоні, Джеймс Ранкін

Сюжет:
Намагаючись вижити в місті, нерозлучні друзі - білка і пацючок натрапляють на магазин, до країв набитий їхніми улюбленими ласощами - горіхами. Відчуваючи, що «мрії збуваються», приятелі планують найбільше пограбування в історії гризунів. Але тут зовсім недоречно намалювалися бідні родичі з парку - прямо 13 друзів арахісу! Однак їм усім невтямки, що магазин горіхів - лише прикриття для банди грабіжників, які мають намір вирити тунель під банк і підмінити мішки з грошима на мішки з тими самими горіхами.


Тривалість: 01:25:54
Якість: (US Transfer)
Відео:
кодек:
розмір кадру: 720 x 390
бітрейт: 1594 кб/с

Аудіо # 1:
мова: українська
переклад: багатоголосий закадровий
кодек: 2.0
бітрейт: 192 кб/с
Інформація про озвучення:

Ролі озвучили: Євген Пашин, Володимир Терещук, Олександр Солодкий та один жіночий голос
Аудіо # 2:
мова: англійська
переклад: оригінал
кодек: MP3 2.0
бітрейт: 192 кб/с
Info:
C:\Users\Admin\Downloads\The Nut Job (2014) [Ukr,Eng] [Hurtom].avi
General
Complete name : C:\Users\Admin\Downloads\The Nut Job (2014) [Ukr,Eng] [Hurtom].avi
Format : AVI
Format/Info : Audio Video Interleave
File size : 1.20 GiB
Duration : 1 h 25 min
Overall bit rate : 1 993 kb/s
Movie name : RARBG - The.Nut.Job.2014.BRRip..MP3-RARBG
Writing application : VirtualDubMod 1.5.10.2 (build 2540/release)
Writing library : VirtualDubMod build 2540/release
Comment : RARBG - The.Nut.Job.2014.BRRip..MP3-RARBG
Video #0
ID : 0
Format : MPEG-4 Visual
Format profile : [email protected]
Format settings, BVOP : No
Format settings, QPel : No
Format settings, GMC : No warppoints
Format settings, Matrix : Default (H.263)
Codec ID :
Codec ID/Hint :
Duration : 1 h 25 min
Bit rate : 1 594 kb/s
Width : 720 pixels
Height : 390 pixels
Display aspect ratio : 1.85:1
Frame rate : 23.976 FPS
Color space : YUV
Chroma subsampling : 4:2:0
Bit depth : 8 bits
Scan type : Progressive
Compression mode : Lossy
Bits/(Pixel*Frame) : 0.237
Stream size : 980 MiB (80%)
Writing library : Lavc57.89.100
Audio #1
ID : 1
Format : AC-3
Format/Info : Audio Coding 3
Mode extension : CM (complete main)
Format settings, Endianness : Big
Codec ID : 2000
Duration : 1 h 25 min
Bit rate mode : Constant
Bit rate : 192 kb/s
Channel(s) : 2 channels
Channel positions : Front: L R
Sampling rate : 48.0 kHz
Frame rate : 31.250 FPS (1536 spf)
Compression mode : Lossy
Stream size : 118 MiB (10%)
Alignment : Split accross interleaves
Interleave, duration : 42 ms (1.00 video frame)
Interleave, preload duration : 500 ms
Audio #2
ID : 2
Format : MPEG Audio
Format version : Version 1
Format profile : Layer 3
Mode : Joint stereo
Codec ID : 55
Codec ID/Hint : MP3
Duration : 1 h 25 min
Bit rate mode : Constant
Bit rate : 192 kb/s
Channel(s) : 2 channels
Sampling rate : 48.0 kHz
Compression mode : Lossy
Stream size : 118 MiB (10%)
Alignment : Split accross interleaves
Interleave, duration : 42 ms (1.00 video frame)
Interleave, preload duration : 500 ms
Writing library : LAME3.99.5[/code]
Скріншоти



Величезна подяка:
Запис - Sando7 , зведення - -_-В_E_N_D_E_R-_-

Джерело: &





 Трекер:    Зареєстрований   

Завантажити / скачати мультфільм українською



відео для новачків



 Зареєстрований:   2018-05-03 22:12
 Розмір:   1.2 GB 
 Оцінка мультфільму:   9.2/10 (Голосів: 14)
   
Інші релізи
   Реальна білка / The Nut Job (2014) 1080p AngryBirdsUA  9 / 0   5.5 GB   2015-02-24 10:45 
   Реальна білка / The Nut Job (2014) Gelios  14 / 0   1.45 GB   2015-02-22 21:39 
igor911 
Модератор відео


З нами з: 18.01.08
Востаннє: 22.10.20
Повідомлень: 15031

2018-05-03 22:27  
21jumpstreet написано:
DivX...mp3
додай, будь ласка звіт медіаінфо.
21jumpstreet 
VIP


З нами з: 03.07.12
Востаннє: 22.10.20
Повідомлень: 1320

2018-05-03 22:39  
igor911
Додав

Electroz 
Відео Гуртом - підтримка та поширення
Відео Гуртом - підтримка та поширення


З нами з: 18.09.14
Востаннє: 22.10.20
Повідомлень: 4126

2018-05-03 22:48  
21jumpstreet написано:
кодек: DivX


21jumpstreet написано:
кодек: MP3

Кількість каналів?

Треба додати театральну багатоголоску.

21jumpstreet 
VIP


З нами з: 03.07.12
Востаннє: 22.10.20
Повідомлень: 1320

2018-05-03 22:52  
Electroz
Там не дубляж, а закадр.
Та озвучка зведена під rus transfer, а це us transfer.

piznajko 
Відео Гуртом - субтитрування
Відео Гуртом - субтитрування


З нами з: 24.02.09
Востаннє: 16.09.20
Повідомлень: 2197

2018-05-04 05:26  
21jumpstreet написано:
Та озвучка зведена під rus transfer, а це us transfer.


Я що саме відменне в RUS Transfer блу реї від US Transfer блу реї - є якісь вирізані сцени?

igor911 
Модератор відео


З нами з: 18.01.08
Востаннє: 22.10.20
Повідомлень: 15031

2018-05-04 10:39  
Electroz написано:
Кількість каналів?

в мп3 не буває більше двох каналів

Fonbaron 
Свій


З нами з: 09.12.12
Востаннє: 17.10.20
Повідомлень: 148

2018-05-20 20:40  
Схожий на "Ріо"
-_-B_Е_N_D_Е_R-_- 
Забанено
Забанено


З нами з: 30.05.18
Востаннє: 24.06.18
Повідомлень: 281

2018-06-02 23:53  
piznajko
Напевне є, якщо озвучка від сіни+ ніяк не могла "лягти" на RUS Transfe

Ваш часовий пояс: GMT + 2 Години

Нова тема   Відповісти