Звіт з Європи (Європа) / Europa Report (2013) Remux 1080p 2xUkr/Eng | Sub Eng

Нові коментарі

Нова тема   Відповісти
Автор Повідомлення
staf777 
Відео Гуртом - підтримка та поширення
Відео Гуртом - підтримка та поширення


З нами з: 16.11.16
Востаннє: 20.09.19
Повідомлень: 2888

2018-05-03 19:55  
Звіт з Європи (Європа) / Europa Report (2013) Remux 1080p 2xUkr/Eng | Sub Eng

Звіт з Європи (Європа) / Europa Report (2013) Remux 1080p 2xUkr/Eng | Sub Eng


Жанр: фантастика, трилер
Країна: США



Кінокомпанія: Wayfare Entertainment, Misher Films, Start Motion Pictures
Режисер: Себастьян Кордеро
Актори: Крістіан Камарґо, Шарлто Коплі, Анамарія Марінка, Мікаел Нюквіст, Деніел Ву, Кароліна Видра, Ембет Девідц, Ісайя Вітлок мол., Ден Фоґлер

Сюжет:
У фільмі розповідається про міжнародну космічну експедицію до шостого супутника Юпітера, яку споряджає приватна корпорація. Мета польоту - висадитися на поверхні Європи, у підлідному океані якої вчені теоретично припускають наявність життя.


Тривалість: 01:30:25
Якість: Remux 1080p
Відео:
кодек:
розмір кадру: 1920x1080
бітрейт: 23 Мб/с

Аудіо # 1:
мова: українська
переклад: багатоголосий закадровий
кодек: 2.0
бітрейт: 192 кб/с

Аудіо # 2:
мова: українська
переклад: багатоголосий закадровий
кодек: 2.0
бітрейт: 192 кб/с

Аудіо # 3:
мова: англійська
переклад: оригінал
кодек: -HD MA 5.1
бітрейт: 1970 кб/с

Субтитри # 1-3: (повні, SDH, SDH кольорові)
мова: англійська
тип: програмні (м'які)
формат: *.srt
Info
General
Unique ID : 205723729281034089797454375069082979267 (0x9AC4F2F4E5B303998BF4725A9D700BC3)
Complete name : H:\RELIZY\Europa Report (2013) Remux 1080p [2XUKR_ENG] [Hurtom].
Format :
Format version : Version 4 / Version 2
File size : 16.0 GiB
Duration : 1 h 30 min
Overall bit rate mode : Variable
Overall bit rate : 25.3 Mb/s
Movie name : Europa Report (2013) Remux 1080p [2XUKR_ENG] [Hurtom]
Encoded date : UTC 2018-05-05 16:33:59
Writing application : v9.8.0 ('Kuglblids') 64bit
Writing library : libebml v1.3.4 + v1.4.5
Cover : Yes
Attachments : covers.jpg

Video
ID : 1
Format : AVC
Format/Info : Advanced Video Codec
Format profile : [email protected]
Format settings : CABAC / 4 Ref Frames
Format settings, CABAC : Yes
Format settings, ReFrames : 4 frames
Codec ID : V_MPEG4/ISO/AVC
Duration : 1 h 30 min
Bit rate mode : Variable
Bit rate : 23.0 Mb/s
Maximum bit rate : 35.0 Mb/s
Width : 1 920 pixels
Height : 1 080 pixels
Display aspect ratio : 16:9
Frame rate mode : Constant
Frame rate : 23.976 (24000/1001) FPS
Standard : NTSC
Color space : YUV
Chroma subsampling : 4:2:0
Bit depth : 8 bits
Scan type : Progressive
Bits/(Pixel*Frame) : 0.462
Stream size : 14.5 GiB (91%)
Title : Europa.Report.(2013).Remux.[1080p]
Language : English
Default : Yes
Forced : No
Color range : Limited
Color primaries : BT.709
Transfer characteristics : BT.709
Matrix coefficients : BT.709

Audio #1
ID : 2
Format : AC-3
Format/Info : Audio Coding 3
Codec ID : A_AC3
Duration : 1 h 30 min
Bit rate mode : Constant
Bit rate : 192 kb/s
Channel(s) : 2 channels
Channel positions : Front: L R
Sampling rate : 48.0 kHz
Frame rate : 31.250 FPS (1536 SPF)
Bit depth : 16 bits
Compression mode : Lossy
Stream size : 124 MiB (1%)
Title : [UA-MVO-ICTV]
Language : Ukrainian
Service kind : Complete Main
Default : Yes
Forced : Yes

Audio #2
ID : 3
Format : AC-3
Format/Info : Audio Coding 3
Codec ID : A_AC3
Duration : 1 h 30 min
Bit rate mode : Constant
Bit rate : 192 kb/s
Channel(s) : 2 channels
Channel positions : Front: L R
Sampling rate : 48.0 kHz
Frame rate : 31.250 FPS (1536 SPF)
Bit depth : 16 bits
Compression mode : Lossy
Stream size : 124 MiB (1%)
Title : [UA-MVO-K1]
Language : Ukrainian
Service kind : Complete Main
Default : No
Forced : No

Audio #3
ID : 4
Format :
Format/Info : Digital Theater Systems
Format profile : MA / Core
Codec ID : A_DTS
Duration : 1 h 30 min
Bit rate mode : Variable / Constant
Bit rate : 1 970 kb/s / 1 509 kb/s
Channel(s) : 6 channels
Channel positions : Front: L C R, Side: L R, LFE
Sampling rate : 48.0 kHz
Frame rate : 93.750 FPS (512 SPF)
Bit depth : 16 bits
Compression mode : Lossless / Lossy
Stream size : 1.24 GiB (8%)
Title : -HD MA 5.1 / 1970 kbps / Original
Language : English
Default : No
Forced : No

Text #1
ID : 5
Format : UTF-8
Codec ID : S_TEXT/UTF8
Codec ID/Info : UTF-8 Plain Text
Duration : 1 h 23 min
Bit rate : 60 b/s
Count of elements : 1194
Stream size : 37.0 KiB (0%)
Title : Full
Language : English
Default : No
Forced : No

Text #2
ID : 6
Format : UTF-8
Codec ID : S_TEXT/UTF8
Codec ID/Info : UTF-8 Plain Text
Duration : 1 h 23 min
Bit rate : 75 b/s
Count of elements : 1441
Stream size : 46.2 KiB (0%)
Title : SDH
Language : English
Default : No
Forced : No

Text #3
ID : 7
Format : UTF-8
Codec ID : S_TEXT/UTF8
Codec ID/Info : UTF-8 Plain Text
Duration : 1 h 23 min
Bit rate : 112 b/s
Count of elements : 1441
Stream size : 69.1 KiB (0%)
Title : SDH (Colored)
Language : English
Default : No
Forced : No

Menu
00:00:00.000 : en:Chapter 1
00:07:24.944 : en:Chapter 2
00:15:46.988 : en:Chapter 3
00:22:05.491 : en:Chapter 4
00:28:40.218 : en:Chapter 5
00:34:55.719 : en:Chapter 6
00:40:22.253 : en:Chapter 7
00:51:24.081 : en:Chapter 8
00:59:42.996 : en:Chapter 9
01:09:13.649 : en:Chapter 10
01:18:32.333 : en:Chapter 11
01:24:27.145 : en:Chapter 12
Скріншоти



Подяка POMEO, krigg070 та Bohdan237 за запис з ТБ ninenine та Arsenfpu за синхронізацію українських доріжок, DanyZemlyanoy за українізований постер.
Джерело: &
Особиста оцінка: 0 - не дивився


Золотий реліз (завантажене не впливає на рейтинг)
 Трекер:    Зареєстрований   

Завантажити / скачати фільм українською



відео для новачків



 Зареєстрований:   2018-05-05 20:54
 Розмір:   16.01 GB 
 Оцінка фільму:   9.6/10 (Голосів: 10)
   
Інші релізи
IronBee 
Поважний учасник


З нами з: 08.02.10
Востаннє: 17.09.19
Повідомлень: 225

2018-05-03 21:46  
Хороший фільм)
bot 
робот


З нами з: 30.09.07
Востаннє: 26.05.05
Повідомлень: 22091

2018-05-05 20:54  
Тему перенесено з Анонси релізів до форуму Фільми в HD


staf777

mopsss 
Новенький


З нами з: 27.12.10
Востаннє: 20.09.19
Повідомлень: 2

2018-05-05 22:35  
Цікавий фільм. Абсолютна самотність людини у невідомості і жага дослідити безмежність, самою дорогою ціною.
robofob 
Частий відвідувач


З нами з: 05.05.16
Востаннє: 20.09.19
Повідомлень: 43

2018-05-05 22:57  
80% "Certified Fresh"
Має бути їстівне Happy
P. S. Згадав, бачив. Ніяке Sad (1) Тобто взагалі. Ще раз впевнився, що рейтинг на Гнилих Памадорах ще не все вирішує.

Uberwinder 
VIP


З нами з: 18.11.16
Востаннє: 20.09.19
Повідомлень: 276

2018-05-06 08:31  
Також згадав, фільм, як на мене, нудьга з нудьги.
HET_HET 
Новенький


З нами з: 29.09.13
Востаннє: 15.09.19
Повідомлень: 8

2018-05-07 01:08  
суть этого фильма - "не ходіть на марс"
Mr Yuran 
Відео Гуртом - команда HD
Відео Гуртом - команда HD


З нами з: 15.11.11
Востаннє: 20.09.19
Повідомлень: 454

2018-05-08 01:34  
HET_HET
Загальні правила користування Торрент-Толокою
Цитата:
Всім без винятку заборонено:
2.1 Спілкуватися іншою мовою, аніж літературною українською; використовувати для написання українських слів іншу абетку, аніж кирилицю

Ваш часовий пояс: GMT + 2 Години

Нова тема   Відповісти