Левина варта / The Lion Guard (Сезон 1) (2016) AVC

Нові коментарі

Нова тема   Відповісти
Автор Повідомлення
sergiyko.5 
VIP


З нами з: 25.02.16
Востаннє: 12.08.20
Повідомлень: 3326

2018-05-03 09:36  
Левина варта / The Lion Guard (Сезон 1) (2016) AVC


Левина варта / The Lion Guard (Сезон 1) (2016) AVC

Жанр: пригоди, комедія
Країна: США
Кінокомпанія: Disney Television Animation, Lioness Productions
Режисер: Хауі Паркінс

Сюжет:
"Левина варта" - це продовження історії Сімби, головного героя мультфільму "Король Лев". Левеня на ім'я Кайон – друге дитинча Сімби й Нали, молодший брат Кіари. Настав час, коли Кайон, несподівано для себе, опановує Рик Предків – здатність всіх других дітей королівської родини, завдяки якій стають лідерами Левиної Варти. Левина Варта – загін із 5 левів, що захищають землі прайду і коло життя: найлютіший лідер, найсміливіший, найсильніший, найшвидший і найпильніший. Але замість того, щоб зібрати загін левів, Кайон збирає товариство різних звірів, у здібностях і вірності яких упевнений.




Тривалість: 22:35 серія (загалом 26 серії з 26)
Якість:

Відео: кодек: розмір кадру: 1024 х 576 бітрейт: 1450 кб/с
Аудіо: мова: українська переклад: професійний дубльований кодек: 2.0 бітрейт: 192 кб/с
Озвучення:
Перелік серій:
01. Бунт Маку
02. Бага примудрий
03. Не такі страшні гієни як їх малюють
04. Швидше б стати королевою
05. Краса в очах того хто дивиться
06. Свято Купатани
07. Нова сім'я Фулі
08. У пошуках Утаму
09. За бегемотом
10. Поклик Дронго
11. Пророчі малюнки
12. Переселення на луги Мбалі
13. Банга і король
14. Уявний Окапі
15. Забагато термітів
16. Клопіт з Галаго
17. Нова банда Джанжі
18. Бабуїни
19. Бережіться Зімві
20. Леви дикого краю
21. Останній рик
22. Горили-заблуди
23. У пошуках Удугу
24. Кумир для Оно
25. Стежки Бешті
26. Оно-шпак
Про файл:
General
Unique ID : 98450082521647863514256728613578744696 (0x4A10CBD37948CD9FB2E5C1527B322378)
Complete name : E:\MULTFILMS\The Lion Guard S01 \S01E01.The.Rise.of.Makuu..
Format :
Format version : Version 4 / Version 2
File size : 266 MiB
Duration : 22 min 35 s
Overall bit rate : 1 648 kb/s
Movie name : The Lion Guard S01 by sergiyko
Encoded date : UTC 2018-05-03 06:30:09
Writing application : v23.0.0 ('The Bride Said No') 64-bit
Writing library : libebml v1.3.6 + v1.4.9

Video
ID : 1
Format : AVC
Format/Info : Advanced Video Codec
Format profile : [email protected]
Format settings, CABAC : Yes
Format settings, ReFrames : 7 frames
Codec ID : V_MPEG4/ISO/AVC
Duration : 22 min 35 s
Bit rate : 1 454 kb/s
Width : 1 024 pixels
Height : 576 pixels
Display aspect ratio : 16:9
Frame rate mode : Constant
Frame rate : 23.976 (24000/1001) FPS
Color space : YUV
Chroma subsampling : 4:2:0
Bit depth : 8 bits
Scan type : Progressive
Bits/(Pixel*Frame) : 0.103
Stream size : 235 MiB (88%)
Title : S01E01 The Rise of Makuu
Writing library : core 152 r2851 ba24899
Encoding settings : cabac=1 / ref=7 / deblock=1:-1:0 / analyse=0x3:0x113 / me=hex / subme=9 / psy=1 / psy_rd=0.40:0.00 / mixed_ref=1 / me_range=16 / chroma_me=1 / trellis=2 / 8x8dct=1 / cqm=0 / deadzone=21,11 / fast_pskip=1 / chroma_qp_offset=-2 / threads=18 / lookahead_threads=1 / sliced_threads=0 / nr=0 / decimate=0 / interlaced=0 / bluray_compat=0 / constrained_intra=0 / bframes=5 / b_pyramid=2 / b_adapt=1 / b_bias=0 / direct=3 / weightb=1 / open_gop=0 / weightp=2 / keyint=250 / keyint_min=23 / scenecut=40 / intra_refresh=0 / rc_lookahead=50 / rc=crf / mbtree=1 / crf=18.0 / qcomp=0.70 / qpmin=0 / qpmax=69 / qpstep=4 / vbv_maxrate=14000 / vbv_bufsize=14000 / crf_max=0.0 / nal_hrd=none / filler=0 / ip_ratio=1.40 / aq=1:0.60
Language : English
Default : Yes
Forced : No

Audio
ID : 2
Format : AC-3
Format/Info : Audio Coding 3
Mode extension : CM (complete main)
Format settings, Endianness : Big
Codec ID : A_AC3
Duration : 22 min 35 s
Bit rate mode : Constant
Bit rate : 192 kb/s
Channel(s) : 2 channels
Channel positions : Front: L R
Sampling rate : 48.0 kHz
Frame rate : 31.250 FPS (1536 spf)
Bit depth : 16 bits
Compression mode : Lossy
Stream size : 31.0 MiB (12%)
Title : DUB | ПлюсПлюс
Language : Ukrainian
Default : Yes
Forced : No
Скріншоти:


Автор запису/зведення: sergiyko



Бронзовий реліз (на рейтинг впливає 75% завантаженого)
 Трекер:    Зареєстрований   

Завантажити / скачати мультфільм українською



відео для новачків



 Зареєстрований:   2018-12-11 17:01
 Розмір:   6.81 GB 
 Оцінка мультсеріалу:   9.3/10 (Голосів: 48)
   
sergiyko.5 
VIP


З нами з: 25.02.16
Востаннє: 12.08.20
Повідомлень: 3326

2018-05-05 08:56  
Додав 2-3 серії
-snoop- 
Новенький


З нами з: 01.08.17
Востаннє: 11.08.20
Повідомлень: 2

2018-05-05 18:17  
sergiyko.5
Дякую! Чекаю продовження!

V.i.R.u.S 
Свій


З нами з: 19.11.10
Востаннє: 12.08.20
Повідомлень: 118

2018-05-09 20:56  
Буде продовження??
ValicV 
Свій


З нами з: 19.01.10
Востаннє: 12.08.20
Повідомлень: 137

2018-05-16 18:08  
Дякуємо. Очікуємо на продовження
sergiyko.5 
VIP


З нами з: 25.02.16
Востаннє: 12.08.20
Повідомлень: 3326

2018-05-17 06:12  
Додав 4-13, 21 серії.
Андрерад 
Свій


З нами з: 09.06.14
Востаннє: 11.08.20
Повідомлень: 74

2018-05-22 17:59  
дякую! чудовий мультик, доня в захваті
sergiyko.5 
VIP


З нами з: 25.02.16
Востаннє: 12.08.20
Повідомлень: 3326

2018-06-06 15:51  
Додав 14-20, 22-26 серії.
ptt007x 
Новенький


З нами з: 20.11.18
Востаннє: 28.11.18
Повідомлень: 4

2018-11-28 04:52  
Буде продовження??

Gclub มือถือ

DDBj 
VIP


З нами з: 09.01.12
Востаннє: 12.08.20
Повідомлень: 711

2018-12-11 11:26  
Канал відучора знову транслює, пишуть, що прем'єрні покази. Тож, можливо, другий сезон. Не мав можливості перевірити.
sergiyko.5 
VIP


З нами з: 25.02.16
Востаннє: 12.08.20
Повідомлень: 3326

2018-12-11 12:02  
Так, почалась трансляція другого сезону. Пишу.
DDBj 
VIP


З нами з: 09.01.12
Востаннє: 12.08.20
Повідомлень: 711

2018-12-11 13:03  
sergiyko.5 написано:
Так, почалась трансляція другого сезону. Пишу.

Чудово. Дяка вам!

xslim 
Відео Гуртом - фільмокрай
Відео Гуртом - фільмокрай


З нами з: 05.03.09
Востаннє: 12.08.20
Повідомлень: 1319

2018-12-11 14:51  
А ця серія виправлена чи ні
Цитата:
Додаткова інформація: наприкінці 18 серії не достає 50 секунд озвучки, після повторного показу файл буде виправлено і оновлено.

якщо ні то можу надати дану серію

sergiyko.5 
VIP


З нами з: 25.02.16
Востаннє: 12.08.20
Повідомлень: 3326

2018-12-11 15:36  
Ні, не виправлена.
xslim 
Відео Гуртом - фільмокрай
Відео Гуртом - фільмокрай


З нами з: 05.03.09
Востаннє: 12.08.20
Повідомлень: 1319

2018-12-11 15:52  
sergiyko.5 
VIP


З нами з: 25.02.16
Востаннє: 12.08.20
Повідомлень: 3326

2018-12-11 17:01  
Торент оновлено. Виправлена 18 серія.
olimpian1 
VIP


З нами з: 19.10.13
Востаннє: 08.08.20
Повідомлень: 288

2019-10-22 09:37  
Добрий, позитивний серіал для малечі.

чи буде 3 сезон українською?

Ваш часовий пояс: GMT + 2 Години

Нова тема   Відповісти