Трансформери: Останній лицар / Transformers: The Last Knight (2017) [IMAX Edition] Ukr/Eng | Sub Ukr/Eng

Нові коментарі

Нова тема   Відповісти
Автор Повідомлення
Anonymous 







2018-05-02 15:37  
Трансформери: Останній лицар / Transformers: The Last Knight (2017) [IMAX Edition] Ukr/Eng | Sub Ukr/Eng

Трансформери: Останній лицар / Transformers: The Last Knight (2017) [IMAX Edition] Ukr/Eng | Sub Ukr/Eng
Усі українські постери:






















Жанр: бойовик, пригоди, фантастика
Країна: США, Канада, Китай



Кінокомпанія: Paramount Pictures, Hasbro, Di Bonaventura Pictures
Режисер: Майкл Бей / Michael Bay
Актори: Марк Волберґ / Mark Wahlberg, Лаура Геддок / Laura Haddock, Ізабела Монер / Isabela Moner, Сантьяго Кабрера / Santiago Cabrera, Ентоні Гопкінс / Anthony Hopkins, Джош Дюамель / Josh Duhamel, Стенлі Тучі / Stanley Tucci, Джон Туртурро / John Turturro, Ліам Ґарріґан / Liam Garrigan, Джон Ґудмен / John Goodman, Джеррод Кармайкл / Jerrod Carmichael, Ерік Адал / Erik Aadahl,

Сюжет:
Конфлікт між людьми і трансформерами наростає, і все говорить про майбутню війну. Про місцезнаходження Оптимуса Прайма нічого не відомо. Останньою надією на порятунок людства може стати історія про перших трансформерів на Землі, яка ретельно приховується. Наш світ може бути врятований завдяки спільним зусиллям професора з Оксфорда Вівіан Вемблі, Кейда Йегер і Бамблбі. Але яких зусиль не докладали б герої, виживе лише один з світів – трансформерів або наш.
Офіційні українські тизер, промо, трейлери, цікавинки:

тизер:


трейлер 1:


трейлер 2:


трейлер 3:


промо:


фрагмент:


Зйомки в IMAX 3D:

Рейтинг MPAA: PG-13 - дітям до 13 років перегляд не бажаний
Вікова категорія: 12+
Тривалість: 02:34:38
Якість:
Відео:
кодек:
розмір кадру: 704 х 368
бітрейт: 1913 кб/с

Аудіо # 1:
мова: українська
переклад: професійний дубльований | студія Postmodern
кодек: 5.1
бітрейт: 448 кб/с
Інформація про дубляж
Переклад та адаптація: Олекса Негребецький
Режисер дубляжу: Людмила Петриченко
Ролі дублювали:
Бамблбі / Ерік Аадал - Петро Сова
Бартон / Ентоні Гопкінс - Олександр Ігнатуша
Кейд / Марк Волберґ - Олександр Шевчук
Джиммі / Джеррод Кармайкл - Дмитро Сова
Леннокс / Джош Дюамель - Юрій Коваленко
Оптимус Прайм - Борис Георгієвський
Сантос / Сантьяго Кабрера - Володимир Паляниця
Вів'єн / Лаура Геддок - Світлана Шекера
Диктор - Кирило Нікітенко
Олег Лепенець, Єлизавета Зіновенко, Андрій Мостренко, Костянтин Лінартович
А також: Володимир Терещук, Матвій Ніколаєв, Володимир Канівець, Євген Пашин, Роман Чорний, Наталя Задніпровська, Наталя Поліщук, Вікторія Кулінич, Михайло Жонін, Євген Сінчуков, Сергій Солопай, Максим Кондратюк, Дмитро Разказов, Віктор Данилюк, Михайло Кукуюк, Дмитро Терещук, Аліса Гур'єва, Юрій Кухаренко, В'ячеслав Дудко, Михайло Кришталь, Наталя Надірадзе, Юрій Гребельник, Віктор Григор'єв, Андрій Соболєв, Микола Боклан, Юрій Кудрявець, Володимир Кокотунов, Назар Задніпровський, Олена Узлюк, Володимир Машук, Катерина Сергеєва, Андрій Терещук, Юлія Перенчук, Арсен Шавлюк, Галина Дубок.

Фільм дубльовано компанією Postmodern.
Аудіо # 2:
мова: англійська
переклад: оригінал
кодек: 5.1
бітрейт: 448 кб/с

Субтитри # 1-2:
мова: українська (форсовані, повні)
тип: програмні (м'які)
формат: *.srt

Субтитри # 3-4:
мова: англійська (повні, SDH)
тип: програмні (м'які)
формат: *.srt
Info
Код:
General
Complete name               : Transformers. The Last Knight [IMAX Edition] (2017) [Ukr,Eng] [Hurtom].avi
Format                      : AVI
Format/Info                 : Audio Video Interleave
Format profile              : OpenDML
File size                   : 3.05 GiB
Duration                    : 2 h 34 min
Overall bit rate            : 2 825 kb/s
Movie name                  : Трансформери: Останній лицар / Transformers: The Last Knight [IMAX Edition] (2017) [Ukr/Eng] [Hurtom]
Genre                       : бойовик, пригоди, фантастика
Writing application         : VirtualDubModUkr 1.5.10.2 (build 2542/release)
Writing library             : VirtualDubMod build 2542/release
Comment                     : https://toloka.to/t89678

Video
ID                          : 0
Format                      : MPEG-4 Visual
Format profile              : Advanced [email protected]
Format settings             : BVOP1 / Custom Matrix
Format settings, BVOP       : 1
Format settings, QPel       : No
Format settings, GMC        : No warppoints
Format settings, Matrix     : Custom
Codec ID                    :
Codec ID/Hint               :
Duration                    : 2 h 34 min
Bit rate                    : 1 913 kb/s
Width                       : 704 pixels
Height                      : 368 pixels
Display aspect ratio        : 1.913
Frame rate                  : 23.976 (24000/1001) FPS
Color space                 : YUV
Chroma subsampling          : 4:2:0
Bit depth                   : 8 bits
Scan type                   : Progressive
Compression mode            : Lossy
Bits/(Pixel*Frame)          : 0.308
Stream size                 : 2.07 GiB (68%)
Writing library             : 66

Audio #1
ID                          : 1
Format                      : AC-3
Format/Info                 : Audio Coding 3
Codec ID                    : 2000
Duration                    : 2 h 34 min
Bit rate mode               : Constant
Bit rate                    : 448 kb/s
Channel(s)                  : 6 channels
Channel positions           : Front: L C R, Side: L R, LFE
Sampling rate               : 48.0 kHz
Frame rate                  : 31.250 FPS (1536 SPF)
Bit depth                   : 16 bits
Compression mode            : Lossy
Stream size                 : 495 MiB (16%)
Alignment                   : Split accross interleaves
Interleave, duration        : 42  ms (1.00 video frame)
Interleave, preload duratio : 500  ms
Title                       : UKR DUB [Postmodern, DVD R5]
Service kind                : Complete Main

Audio #2
ID                          : 2
Format                      : AC-3
Format/Info                 : Audio Coding 3
Codec ID                    : 2000
Duration                    : 2 h 34 min
Bit rate mode               : Constant
Bit rate                    : 448 kb/s
Channel(s)                  : 6 channels
Channel positions           : Front: L C R, Side: L R, LFE
Sampling rate               : 48.0 kHz
Frame rate                  : 31.250 FPS (1536 SPF)
Bit depth                   : 16 bits
Compression mode            : Lossy
Stream size                 : 496 MiB (16%)
Alignment                   : Split accross interleaves
Interleave, duration        : 42  ms (1.00 video frame)
Interleave, preload duratio : 500  ms
Title                       : ENG Original
Service kind                : Complete Main


Джерело: &



 Трекер:    Зареєстрований   

Завантажити / скачати фільм українською



відео для новачків



 Зареєстрований:   2018-05-02 16:08
 Розмір:   3.05 GB 
 Оцінка фільму:   9.2/10 (Голосів: 17)
   
zoomymba2012 
VIP


З нами з: 08.01.15
Востаннє: 24.04.19
Повідомлень: 595

2018-05-02 16:04  
Начбто вже є https://toloka.to/t84000-30
Може легше той реліз оновити?

Anonymous 







2018-05-02 16:07  
zoomymba2012, тут достатній бітрейт для динамічного екшена, дубляж 5.1 + оригінал 5.1, повний комплект сабів.
zoomymba2012 
VIP


З нами з: 08.01.15
Востаннє: 24.04.19
Повідомлень: 595

2018-05-02 16:08  
Anonymous
А, окей.

Ваш часовий пояс: GMT + 2 Години

Нова тема   Відповісти