Сторожова вежа (Cruel and Unusual) / Watchtower (2001) -AVC Ukr/Eng

Нові коментарі

Нова тема   Відповісти
Автор Повідомлення
Anonymous 







2018-05-01 23:45  
Сторожова вежа / Cruel and Unusual / Watchtower (2001) -AVC Ukr/Eng

Сторожова вежа (Cruel and Unusual) / Watchtower (2001) -AVC Ukr/Eng


Жанр: драма, трилер
Країна: Канада



Кінокомпанія: Alliance Atlantis Communications, Frontline Entertainment, GFT
Режисер: Джордж Міхалка
Актори: Том Беренджер, Рейчел Хейярд, Тай Рунян, Елізабет Керол Савенкофф, Елі Габей

Сюжет:
Мир і спокій сонного сільського Орегона обернулися смертоносною небезпекою, коли Адам Тарред повернувся в місто. Представившись англійським професором, що працює над своїм першим романом, він подружився з Кейт і Майком О'Коннор, братом і сестрою, що намагаються повернутися назад до нормального життя після смерті батька.

Обидва доброзичливо ставляться до мандрівника і запрошують його повечеряти з ними, не підозрюючи, що їхні дії приведуть їх на небезпечний шлях хитромудрої сутички зі смертельно небезпечним серійним вбивцею...


Тривалість: 01:36:21
Якість: -AVC
Відео:
кодек:
розмір кадру: 720х 400
бітрейт: 1 532 кб/с

Аудіо # 1:
мова: українська
переклад: багатоголосий закадровий
кодек: 2.0
бітрейт: 192 кб/с

Аудіо # 2:
мова: англійська
переклад: оригінал
кодек: 2.0
бітрейт: 192 кб/с
Скріншоти






Info
General
Unique ID : 335679383713545090628004357737265561660 (0xFC897F6801390CC1D4EBC20F544D003C)
Complete name : E:\films\Watchtower (2001) -AVC [ukr.eng] Hurtom.
Format :
Format version : Version 4 / Version 2
File size : 1.29 GiB
Duration : 1 h 36 min
Overall bit rate : 1 918 kb/s
Movie name : Сторожевая башня/Жестокий и необычный(Watchtower/Cruel And Unusual).2001.
Encoded date : UTC 2018-05-01 21:29:12
Writing application : v21.0.0 ('Tardigrades Will Inherit The Earth') 64-bit
Writing library : libebml v1.3.5 + v1.4.8

Video
ID : 1
Format : AVC
Format/Info : Advanced Video Codec
Format profile : [email protected]
Format settings, CABAC : Yes
Format settings, ReFrames : 16 frames
Codec ID : V_MPEG4/ISO/AVC
Duration : 1 h 36 min
Bit rate : 1 532 kb/s
Width : 720 pixels
Height : 400 pixels
Display aspect ratio : 16:9
Frame rate mode : Constant
Frame rate : 25.000 FPS
Color space : YUV
Chroma subsampling : 4:2:0
Bit depth : 8 bits
Scan type : Progressive
Bits/(Pixel*Frame) : 0.213
Stream size : 1.03 GiB (80%)
Title : Watchtower / Cruel And Unusual) 2001
Writing library : core 66 r1101M b69548a
Encoding settings : cabac=1 / ref=16 / deblock=1:-3:0 / analyse=0x3:0x133 / me=tesa / subme=9 / psy_rd=1.0:0.0 / mixed_ref=1 / me_range=32 / chroma_me=1 / trellis=2 / 8x8dct=1 / cqm=2 / deadzone=21,11 / chroma_qp_offset=-2 / threads=3 / nr=0 / decimate=0 / mbaff=0 / bframes=4 / b_pyramid=1 / b_adapt=2 / b_bias=0 / direct=3 / wpredb=1 / keyint=250 / keyint_min=25 / scenecut=40(pre) / rc=2pass / bitrate=1532 / ratetol=1.0 / qcomp=0.60 / qpmin=10 / qpmax=51 / qpstep=4 / cplxblur=20.0 / qblur=0.5 / ip_ratio=1.40 / pb_ratio=1.30 / aq=1:1.00
Language : English
Default : Yes
Forced : No

Audio #1
ID : 2
Format : AC-3
Format/Info : Audio Coding 3
Mode extension : CM (complete main)
Format settings, Endianness : Big
Codec ID : A_AC3
Duration : 1 h 36 min
Bit rate mode : Constant
Bit rate : 192 kb/s
Channel(s) : 2 channels
Channel positions : Front: L R
Sampling rate : 48.0 kHz
Frame rate : 31.250 FPS (1536 spf)
Bit depth : 16 bits
Compression mode : Lossy
Stream size : 132 MiB (10%)
Title : INTER channel
Language : Ukrainian
Default : Yes
Forced : Yes

Audio #2
ID : 3
Format : AC-3
Format/Info : Audio Coding 3
Mode extension : CM (complete main)
Format settings, Endianness : Big
Codec ID : A_AC3
Duration : 1 h 36 min
Bit rate mode : Constant
Bit rate : 192 kb/s
Channel(s) : 2 channels
Channel positions : Front: L R
Sampling rate : 48.0 kHz
Frame rate : 31.250 FPS (1536 spf)
Bit depth : 16 bits
Compression mode : Lossy
Stream size : 132 MiB (10%)
Title : original
Language : English
Default : No
Forced : No
Джерело: &


 Трекер:    Зареєстрований   

Завантажити / скачати фільм українською



відео для новачків



 Зареєстрований:   2018-05-01 23:45
 Розмір:   1.29 GB 
 Оцінка фільму:   5/10 (Голосів: 1)
   
Ваш часовий пояс: GMT + 2 Години

Нова тема   Відповісти