Качині історії: Повнометражка - Скарби загубленої лампи / DuckTales: The Movie - Treasure of the Lost Lamp (1990) 4K 2160p Ukr/Eng | Sub Ukr/Eng

Нові коментарі

Нова тема   Відповісти
Автор Повідомлення
lolyworlds 
Частий відвідувач


З нами з: 17.01.18
Востаннє: 17.01.21
Повідомлень: 35

2018-05-01 22:24  
Качині історії: Повнометражка - Скарби загубленої лампи / DuckTales: The Movie - Treasure of the Lost Lamp (1990) 4K 2160p Ukr/Eng | Sub Ukr/Eng


Качині історії: Повнометражка - Скарби загубленої лампи / DuckTales: The Movie - Treasure of the Lost Lamp (1990) 4K 2160p Ukr/Eng | Sub Ukr/Eng


Жанр: анімація, фентезі, пригодницький, сімейний, комедія, дитячий
Країна: США



Кіностудія / кінокомпанія: Walt Disney Animation France S.A., Walt Disney Pictures
Режисер: Боб Хетхок
Актори: Алан Янг, Теренс МакГоверн, Руссі Тейлор, Річард Лібертін, Крістофер Ллойд, Чак Макканн, Джоан Гербер

Сюжет:
Застрибуйте на верблюда, хапайте карту і приготуйтеся до захоплюючої веселої пригоди разом з улюбленими качиними друзями Скруджом МакДаком, Біллі, Діллі, Віллі та поночкою!
Приєднуйтесь до команди Качиних Історій, що перетинатиму єгипетську пустелю в безстрашному пошуку легендарних скарбів Коллі Баби. Захоплюючі моменти будуть переслідувати головних героїв на кожному кроці, у міру наближення до казкових скарбів, а злий маг Мерлок буде йти по п'ятах. Але сміливі качки і не могли припустити, що разом зі скарбами знайдуть чарівну лампу, що виконує бажання!


Тривалість: 01:13:51
Якість: 4K 2160p AMAZON
Відео:
кодек:
розмір кадру: 3840x2160
бітрейт: 28 000 кб/с

Аудіо # 1:
мова: українська
переклад: професійний дубльований
кодек: MP2 2.0
бітрейт: 384 кб/с

Аудіо # 2:
мова: українська
переклад: професійний дубльований
кодек: 1.0
бітрейт: 192 кб/с

Аудіо # 3:
мова: англійська
переклад: оригінал
кодек: E-AC-3 2.0
бітрейт: 224 кб/с

Джерело озвучення:


Субтитри:
мова: українська
тип: програмні (м'які)
формат: *.srt

Субтитри:
мова: англійська
тип: програмні (м'які)
формат: *.srt

Зразок для оцінки якостi
Info
General
Unique ID : 245522040837263869236120607270367649398 (0xB8B5D3362F7D6733CC7FA28857E7DE76)
Complete name : E:\Downloads\MOVIE\Duck_Tales_the_Movie_Treasure_of_the_Lost_Lamp_UKR_ENG_SUB_2160p_WEB-DL_AMZ_HHD.
Format :
Format version : Version 4 / Version 2
File size : 14.5 GiB
Duration : 1 h 13 min
Overall bit rate : 28.0 Mb/s
Movie name : Duck Tales the Movie Treasure of the Lost Lamp 2160p AMZ HHD
Encoded date : UTC 2018-05-01 20:00:03
Writing application : v22.0.0 ('At The End Of The World') 64-bit
Writing library : libebml v1.3.5 + v1.4.8

Video
ID : 1
Format : AVC
Format/Info : Advanced Video Codec
Format profile : [email protected]
Format settings, CABAC : Yes
Format settings, ReFrames : 4 frames
Codec ID : V_MPEG4/ISO/AVC
Duration : 1 h 13 min
Bit rate mode : Constant
Bit rate : 28.0 Mb/s / 28.0 Mb/s
Width : 3 840 pixels
Height : 2 160 pixels
Display aspect ratio : 16:9
Frame rate mode : Constant
Frame rate : 23.976 (24000/1001) FPS
Standard : NTSC
Color space : YUV
Chroma subsampling : 4:2:0
Bit depth : 8 bits
Scan type : Progressive
Bits/(Pixel*Frame) : 0.141
Stream size : 14.0 GiB (97%)
Title : Duck Tales the Movie Treasure of the Lost Lamp 2160p AMZ HHD
Writing library : core 114
Encoding settings : cabac=1 / ref=4 / deblock=1:0:0 / analyse=0x3:0x113 / me=hex / subme=7 / psy=1 / psy_rd=1.00:0.00 / mixed_ref=1 / me_range=16 / chroma_me=1 / trellis=1 / 8x8dct=1 / cqm=2 / deadzone=21,11 / fast_pskip=1 / chroma_qp_offset=-2 / threads=6 / sliced_threads=0 / slices=1 / nr=0 / decimate=1 / interlaced=0 / constrained_intra=0 / bframes=8 / b_pyramid=0 / b_adapt=1 / b_bias=0 / direct=1 / weightb=1 / open_gop=0 / weightp=2 / keyint=250 / keyint_min=120 / scenecut=100 / intra_refresh=0 / rc_lookahead=40 / rc=cbr / mbtree=1 / bitrate=28000 / ratetol=1.0 / qcomp=0.60 / qpmin=3 / qpmax=69 / qpstep=4 / vbv_maxrate=28000 / vbv_bufsize=27983 / nal_hrd=cbr / ip_ratio=1.40 / aq=1:1.00
Language : English
Default : Yes
Forced : Yes
Color range : Limited
Color primaries : BT.709
Transfer characteristics : BT.709
Matrix coefficients : BT.709

Audio #1
ID : 2
Format : MPEG Audio
Format version : Version 1
Format profile : Layer 2
Codec ID : A_MPEG/L2
Codec ID/Hint : MP2
Duration : 1 h 13 min
Bit rate mode : Constant
Bit rate : 384 kb/s
Channel(s) : 2 channels
Sampling rate : 48.0 kHz
Frame rate : 41.667 FPS (1152 spf)
Compression mode : Lossy
Stream size : 203 MiB (1%)
Title : UKR DUB DD2.0 |Новий Канал|
Language : Ukrainian
Default : Yes
Forced : Yes

Audio #2
ID : 3
Format : AC-3
Format/Info : Audio Coding 3
Mode extension : CM (complete main)
Format settings, Endianness : Big
Codec ID : A_AC3
Duration : 1 h 13 min
Bit rate mode : Constant
Bit rate : 192 kb/s
Channel(s) : 1 channel
Channel positions : Front: C
Sampling rate : 48.0 kHz
Frame rate : 31.250 FPS (1536 spf)
Bit depth : 16 bits
Compression mode : Lossy
Stream size : 101 MiB (1%)
Title : UKR DUB DD1.0 |Новий Канал|
Language : Ukrainian
Default : No
Forced : No

Audio #3
ID : 4
Format : E-AC-3
Format/Info : Enhanced Audio Coding 3
Format settings, Endianness : Big
Codec ID : A_EAC3
Duration : 1 h 13 min
Bit rate mode : Constant
Bit rate : 224 kb/s
Channel(s) : 2 channels
Channel positions : Front: L R
Sampling rate : 48.0 kHz
Frame rate : 187.500 FPS (256 spf)
Compression mode : Lossy
Stream size : 118 MiB (1%)
Title : ENG DD2.0
Language : English
Default : No
Forced : No

Text #1
ID : 5
Format : UTF-8
Codec ID : S_TEXT/UTF8
Codec ID/Info : UTF-8 Plain Text
Duration : 1 h 9 min
Bit rate : 75 b/s
Count of elements : 669
Stream size : 38.8 KiB (0%)
Title : UKR Full
Language : Ukrainian
Default : No
Forced : No

Text #2
ID : 6
Format : UTF-8
Codec ID : S_TEXT/UTF8
Codec ID/Info : UTF-8 Plain Text
Duration : 1 h 8 min
Bit rate : 53 b/s
Count of elements : 898
Stream size : 26.7 KiB (0%)
Title : ENG Full
Language : English
Default : No
Forced : No

Menu
00:00:00.000 : en:Opening Titles/Finding The Map
00:06:22.000 : en:The Lost Pyramid
00:18:50.000 : en:The Genie Is Released
00:27:26.000 : en:The Meanest Master
00:31:56.000 : en:Merlock The Rat
00:36:49.000 : en:The Jig Is Up
00:42:56.000 : en:Scrooge On The Run
00:48:27.000 : en:The Unlikely Master
00:52:00.000 : en:Scrooge Behind Bars
00:55:14.000 : en:Fighting Back
00:59:35.000 : en:Merlock's Back In Charge
01:06:09.000 : en:The Ultimate Wish/End Credits
Скріншоти
Джерело:
Особиста оцінка: 10


Срібний реліз (на рейтинг впливає 50% завантаженого)
 Трекер:    Зареєстрований   

Завантажити / скачати мультфільм українською



відео для новачків



 Зареєстрований:   2018-05-01 22:24
 Розмір:   14.46 GB 
 Оцінка мультфільму:   10/10 (Голосів: 16)
   
lolyworlds 
Частий відвідувач


З нами з: 17.01.18
Востаннє: 17.01.21
Повідомлень: 35

2018-05-02 13:28  
IP - дiнамика, але я на роздачi! Чомусь не зв'язуе нi з ким хто качае. Sad (1)
igor911 
Модератор відео


З нами з: 18.01.08
Востаннє: 02.03.21
Повідомлень: 15591

2018-05-02 13:30  
lolyworlds написано:
Чомусь не зв'язуе нi з ким хто качае

мабуть порти у вас трьох закриті

lolyworlds 
Частий відвідувач


З нами з: 17.01.18
Востаннє: 17.01.21
Повідомлень: 35

2018-05-02 14:39  
igor911
Так, порт закрито, на жаль. Роутер порт поставлено той що треба на вiдчиненя, але, але...

kll1 
Забанено
Забанено


З нами з: 13.06.16
Востаннє: 04.06.18
Повідомлень: 271

2018-05-02 15:46  
Цитата:
Чомусь не зв'язуе нi з ким хто качае.

Boнo й нe дивнo:
Цитата:
uTorrent 1.8

lolyworlds 
Частий відвідувач


З нами з: 17.01.18
Востаннє: 17.01.21
Повідомлень: 35

2018-05-09 17:30  
Усi скачали, але нiхто й не написав про звук, а вiн тут дуже гарний! Усi iншi релiзи з цим мультфiльмом - не дуже аудiо...
-_-В_E_N_D_E_R-_- 
Забанено
Забанено


З нами з: 22.04.18
Востаннє: 24.06.18
Повідомлень: 186

2018-05-09 17:35  
kll1 написано:
Boнo й нe дивнo:

Що саме "дивно"?

Ваш часовий пояс: GMT + 2 Години

Нова тема   Відповісти