Левина варта. Повернення Рику / The Lion Guard: Return of the Roar (2015)

Нові коментарі

Нова тема   Відповісти
Останній раз роздавалося shtefa (2020-10-24)
Автор Повідомлення
sergiyko.5 
VIP


З нами з: 25.02.16
Востаннє: 25.10.20
Повідомлень: 3615

2018-05-01 21:13  
Левина варта. Повернення Рику / The Lion Guard: Return of the Roar (2015)


Левина варта. Повернення Рику / The Lion Guard: Return of the Roar (2015)

Жанр: пригоди, комедія
Країна: США
Кінокомпанія: Disney Television Animation, Lioness Productions
Режисер: Хауі Паркінс

Сюжет:
"Левина варта" - це продовження історії Сімби, головного героя мультфільму "Король Лев". Левеня на ім'я Кайон – друге дитинча Сімби й Нали, молодший брат Кіари. Настав час, коли Кайон, несподівано для себе, опановує Рик Предків – здатність всіх других дітей королівської родини, завдяки якій стають лідерами Левиної Варти. Левина Варта – загін із 5 левів, що захищають землі прайду і коло життя: найлютіший лідер, найсміливіший, найсильніший, найшвидший і найпильніший. Але замість того, щоб зібрати загін левів, Кайон збирає товариство різних звірів, у здібностях і вірності яких упевнений.




Інформація: "Левина варта. Повернення Рика / The Lion Guard: Return of the Roar" - пілотна серія відомого мультсеріалу "Левина варта / The Lion Guard" була показана у листопаді 2015 року.

Тривалість: 44:20
Якість:

Відео: кодек: розмір кадру: 720 х 408 бітрейт: 1500 кб/с
Аудіо 1: мова: українська переклад: професійний дубльований кодек: 2.0 бітрейт: 192 кб/с
Джерело озвучення:
Про файл:
General
Complete name : E:\MULTFILMS\The Lion Guard.Return of the Roar.2015..avi
Format : AVI
Format/Info : Audio Video Interleave
File size : 540 MiB
Duration : 44 min 20 s
Overall bit rate : 1 704 kb/s
Writing application : VirtualDubMod 1.5.10.3 | www.virtualdub-fr.org || (build 2550/release)
Writing library : VirtualDubMod build 2550/release

Video
ID : 0
Format : MPEG-4 Visual
Format profile : Advanced [email protected]
Format settings, BVOP : 1
Format settings, QPel : No
Format settings, GMC : No warppoints
Format settings, Matrix : Default (H.263)
Codec ID : DX50
Codec ID/Hint : DivX 5
Duration : 44 min 20 s
Bit rate : 1 503 kb/s
Width : 720 pixels
Height : 408 pixels
Display aspect ratio : 16:9
Frame rate : 23.976 (24000/1001) FPS
Color space : YUV
Chroma subsampling : 4:2:0
Bit depth : 8 bits
Scan type : Progressive
Compression mode : Lossy
Bits/(Pixel*Frame) : 0.213
Stream size : 477 MiB (88%)
Writing library : 1.2.1 (UTC 2008-12-04)

Audio
ID : 1
Format : AC-3
Format/Info : Audio Coding 3
Mode extension : CM (complete main)
Format settings, Endianness : Big
Codec ID : 2000
Duration : 44 min 20 s
Bit rate mode : Constant
Bit rate : 192 kb/s
Channel(s) : 2 channels
Channel positions : Front: L R
Sampling rate : 48.0 kHz
Frame rate : 31.250 FPS (1536 spf)
Bit depth : 16 bits
Compression mode : Lossy
Stream size : 60.9 MiB (11%)
Alignment : Split accross interleaves
Interleave, duration : 42 ms (1.00 video frame)
Interleave, preload duration : 500 ms
Скріншоти:


Автор запису/зведення: sergiyko


 Трекер:    Зареєстрований   

Завантажити / скачати мультфільм українською



відео для новачків



 Зареєстрований:   2018-05-01 21:13
 Розмір:   540 MB 
 Оцінка мультфільму:   9.8/10 (Голосів: 16)
   
НаталяНІГО 
Новенький


З нами з: 02.05.18
Востаннє: 02.05.18
Повідомлень: 1

2018-05-02 18:40  
ЛЕВИНА ВАРТА
igor911 
Модератор відео


З нами з: 18.01.08
Востаннє: 24.10.20
Повідомлень: 15036

2018-05-02 19:04  
НаталяНІГО вітаю з реєстрацією на Толоці. Телеканал назвав мультфільм саме як "Левова варта". За нашими правилами вказується назва, що озвучена студією/телеканалом.
DDBj 
VIP


З нами з: 09.01.12
Востаннє: 24.10.20
Повідомлень: 733

2018-05-02 19:25  
igor911 написано:
Телеканал назвав мультфільм саме як "Левова варта". За нашими правилами вказується назва, що озвучена студією/телеканалом.

Ні. І назва серіалу, і варта з вуст персонажів звучить чітко як "Левина". Правила порушено.

igor911 
Модератор відео


З нами з: 18.01.08
Востаннє: 24.10.20
Повідомлень: 15036

2018-05-02 19:27  
DDBj, а я повірив сайту телеканалу Sad (1)
Ваш часовий пояс: GMT + 2 Години

Нова тема   Відповісти