Левина варта. Повернення Рику / The Lion Guard: Return of the Roar (2015) AVC Ukr/Eng

Нові коментарі

Нова тема   Відповісти
Автор Повідомлення
sergiyko.5 
VIP


З нами з: 25.02.16
Востаннє: 16.06.19
Повідомлень: 2327

2018-05-01 22:02  
Левина варта. Повернення Рику / The Lion Guard: Return of the Roar (2015) AVC Ukr/Eng


Левина варта. Повернення Рику / The Lion Guard: Return of the Roar (2015) AVC Ukr/Eng

Жанр: пригоди, комедія
Країна: США
Кінокомпанія: Disney Television Animation, Lioness Productions
Режисер: Хауі Паркінс

Сюжет:
"Левина варта" - це продовження історії Сімби, головного героя мультфільму "Король Лев". Левеня на ім'я Кайон – друге дитинча Сімби й Нали, молодший брат Кіари. Настав час, коли Кайон, несподівано для себе, опановує Рик Предків – здатність всіх других дітей королівської родини, завдяки якій стають лідерами Левиної Варти. Левина Варта – загін із 5 левів, що захищають землі прайду і коло життя: найлютіший лідер, найсміливіший, найсильніший, найшвидший і найпильніший. Але замість того, щоб зібрати загін левів, Кайон збирає товариство різних звірів, у здібностях і вірності яких упевнений.




Інформація: "Левина варта. Повернення Рика / The Lion Guard: Return of the Roar" - пілотна серія відомого мультсеріалу "Левина варта / The Lion Guard" була показана у листопаді 2015 року.

Тривалість: 44:20
Якість:

Відео: кодек: розмір кадру: 1024 х 576 бітрейт: 1400 кб/с
Аудіо 1: мова: українська переклад: професійний дубльований кодек: 2.0 бітрейт: 192 кб/с Джерело озвучення:
Аудіо 2: мова: англійська переклад: оригінал кодек: 5.1 бітрейт: 384 кб/с
Про файл:
General
Unique ID : 182624864131908607899349032846065217128 (0x896444FA28CD9D704D1112EFAA352E68)
Complete name : E:\MULTFILMS\The Lion Guard.Return of the Roar.2015..Ukr.Eng.
Format :
Format version : Version 4 / Version 2
File size : 628 MiB
Duration : 44 min 20 s
Overall bit rate : 1 979 kb/s
Movie name : The Lion Guard.Return of the Roar 2015 by sergiyko
Encoded date : UTC 2018-05-01 18:54:05
Writing application : v22.0.0 ('At The End Of The World') 64-bit
Writing library : libebml v1.3.5 + v1.4.8

Video
ID : 1
Format : AVC
Format/Info : Advanced Video Codec
Format profile : [email protected]
Format settings, CABAC : Yes
Format settings, ReFrames : 7 frames
Codec ID : V_MPEG4/ISO/AVC
Duration : 44 min 20 s
Bit rate : 1 401 kb/s
Width : 1 024 pixels
Height : 576 pixels
Display aspect ratio : 16:9
Frame rate mode : Constant
Frame rate : 23.976 (24000/1001) FPS
Color space : YUV
Chroma subsampling : 4:2:0
Bit depth : 8 bits
Scan type : Progressive
Bits/(Pixel*Frame) : 0.099
Stream size : 444 MiB (71%)
Title : The Lion Guard.Return of the Roar 2015
Writing library : core 152 r2851 ba24899
Encoding settings : cabac=1 / ref=7 / deblock=1:-1:0 / analyse=0x3:0x113 / me=hex / subme=9 / psy=1 / psy_rd=0.40:0.00 / mixed_ref=1 / me_range=16 / chroma_me=1 / trellis=2 / 8x8dct=1 / cqm=0 / deadzone=21,11 / fast_pskip=1 / chroma_qp_offset=-2 / threads=18 / lookahead_threads=1 / sliced_threads=0 / nr=0 / decimate=0 / interlaced=0 / bluray_compat=0 / constrained_intra=0 / bframes=5 / b_pyramid=2 / b_adapt=1 / b_bias=0 / direct=3 / weightb=1 / open_gop=0 / weightp=2 / keyint=250 / keyint_min=23 / scenecut=40 / intra_refresh=0 / rc_lookahead=50 / rc=crf / mbtree=1 / crf=18.0 / qcomp=0.70 / qpmin=0 / qpmax=69 / qpstep=4 / vbv_maxrate=14000 / vbv_bufsize=14000 / crf_max=0.0 / nal_hrd=none / filler=0 / ip_ratio=1.40 / aq=1:0.60
Language : English
Default : Yes
Forced : No

Audio #1
ID : 2
Format : AC-3
Format/Info : Audio Coding 3
Mode extension : CM (complete main)
Format settings, Endianness : Big
Codec ID : A_AC3
Duration : 44 min 20 s
Bit rate mode : Constant
Bit rate : 192 kb/s
Channel(s) : 2 channels
Channel positions : Front: L R
Sampling rate : 48.0 kHz
Frame rate : 31.250 FPS (1536 spf)
Bit depth : 16 bits
Compression mode : Lossy
Stream size : 60.9 MiB (10%)
Title : DUB | ПлюсПлюс
Language : Ukrainian
Default : Yes
Forced : Yes

Audio #2
ID : 3
Format : AC-3
Format/Info : Audio Coding 3
Mode extension : CM (complete main)
Format settings, Endianness : Big
Codec ID : A_AC3
Duration : 44 min 20 s
Bit rate mode : Constant
Bit rate : 384 kb/s
Channel(s) : 6 channels
Channel positions : Front: L C R, Side: L R, LFE
Sampling rate : 48.0 kHz
Frame rate : 31.250 FPS (1536 spf)
Bit depth : 16 bits
Compression mode : Lossy
Stream size : 122 MiB (19%)
Title : Original
Language : English
Default : No
Forced : No
Скріншоти:


Автор запису/зведення: sergiyko


 Трекер:    Зареєстрований   

Завантажити / скачати мультфільм українською



відео для новачків



 Зареєстрований:   2018-05-01 22:02
 Розмір:   628 MB 
 Оцінка мультфільму:   9.9/10 (Голосів: 22)
   
Віктор Багряний 
VIP


З нами з: 20.08.12
Востаннє: 16.06.19
Повідомлень: 391

2018-05-07 01:47  
наскільки я знаю The Lion Guard: Return of the Roar це пілотний фільм серіалу "Хранитель Лев", що транслювався в США та Канаді у 2015-у.
Alex_Kraska 
Свій


З нами з: 27.12.11
Востаннє: 10.06.19
Повідомлень: 103

2018-05-22 11:06  
Мультик гарний, але вперше зустрівся з тим, що не можу записати його на компакт без втрати укр.дубляжу...Цікаво чому?
igor911 
Модератор відео


З нами з: 18.01.08
Востаннє: 16.06.19
Повідомлень: 12654

2018-05-22 11:15  
Alex_Kraska написано:
не можу записати його на компакт без втрати укр.дубляжу...Цікаво чому?

Бо імовірно програвач, яким намагаєтесь дивитись, автоматом відтворює англійську доріжку, яка має кращу якість (5.1 каналів проти 2.0 в укр.). Перемкніть на українську в меню програвача та задайте в його налаштуваннях пріоритет для української мови.

Alex_Kraska 
Свій


З нами з: 27.12.11
Востаннє: 10.06.19
Повідомлень: 103

2018-05-22 13:09  
Приблизно так і було, тільки не допомогло.Я вийшов з положення за допомогою прог.avidemux перевівши в формат mpg2.Тепер запишеться на компакт.
igor911 
Модератор відео


З нами з: 18.01.08
Востаннє: 16.06.19
Повідомлень: 12654

2018-05-22 13:18  
Alex_Kraska написано:
перевівши в формат mpg2.Тепер запишеться на компакт

тип контейнера файлу, , mpg чи avi, ніяк не пов'язаний з можливістю запису файлу на диски. А відтворення файлів з дисків залежить від можливостей "залізного" програвача або кодеків/програмного програвача у випадку перегляду на ПК.

Alex_Kraska 
Свій


З нами з: 27.12.11
Востаннє: 10.06.19
Повідомлень: 103

2018-05-22 20:05  
Ви маєте рацію.VLC відтворює в ПК без проблем, але мій DVD плеєр (мод.438 -China 2007р) вимагає від мене для запису на компакт диск такої переробки, що я і зробив.
igor911 
Модератор відео


З нами з: 18.01.08
Востаннє: 16.06.19
Повідомлень: 12654

2018-05-22 21:00  
Alex_Kraska, тоді вам краще одразу вантажити сусідній реліз
https://toloka.to/t89665 , його ваш програвач має подужати без перекодування сумнівними програмами.

Alex_Kraska 
Свій


З нами з: 27.12.11
Востаннє: 10.06.19
Повідомлень: 103

2018-05-23 10:04  
Дякую, так і зроблю.
eXteSy- 
VIP


З нами з: 06.04.09
Востаннє: 16.06.19
Повідомлень: 1934

2019-06-01 22:10  
На жаль, розчарування. Окрім кількох дрібних епізодів, не сподобалося. Мальовка гарна, однак сценарій просто недолугий. "Король Лев" - найулюбленіший мульт, а це - невідомо що.
Ще й автори мульта вважають глядачів ідіотами, які нездатні запам'ятати, про що їм розповіли п'ять хвилин назад, а тому потрібно це повторити двічі. А ще краще тричі.
4,5/10

Ваш часовий пояс: GMT + 2 Години

Нова тема   Відповісти