Особливо небезпечний / Wanted (2008) AVC 3xUkr [Open Matte]

Нові коментарі

Нова тема   Відповісти
Автор Повідомлення
21jumpstreet 
VIP


З нами з: 03.07.12
Востаннє: 18.11.19
Повідомлень: 721

2018-05-01 11:09  
Особливо небезпечний / Wanted (2008) AVC 3xUkr [Open Matte]

Особливо небезпечний / Wanted (2008) AVC 3xUkr [Open Matte]


Жанр: бойовик, кримінальний, трилер, фантастика
Країна: США, Німеччина



Кінокомпанія: Universal Pictures, Relativity media, Spyglass Entertainment
Режисер: Тимур Бемкамбетов
Актори: Джеймс МакЕвой, Морґан Фрімен, Анджеліна Джолі, Теренс Стемп, Томас Кречманн, Констянтин Хабенський

Сюжет:
Жив був в Америці типовий американський задрот на ім'я Веслі Гібсон. Типові проблеми на роботі, дівчина зраджує, грошей повний нуль, коротше життя повне г. Але Анджеліна Джолі разом з Морганом Фріманом роблять із задрота справжнього мужика і ледь не Супермена з крутою здатністю стріляти в бік. Та хлопець ще не знає всієї правди, а от коли дізнається усім буде непереливки.


Тривалість: 01:49:51
Якість:
Відео:
кодек:
розмір кадру: 1024 x 576
бітрейт: 2385 кб/с

Аудіо # 1:
мова: українська
переклад: професійний дубльований
кодек: 5.1
бітрейт: 384 кб/с
Інформація про дубляж:
Ролі озвучували: Джеймс Макевой - Павло Скороходько, Анджеліна Джолі - Лариса Руснак, Морган Фріман - Олександр Ігнатуша, Дженніс - Ніна Касторф, Борис Георгієвський, Микола Боклан та інші
Аудіо # 2:
мова: українська
переклад: багатоголосий закадровий ,
кодек: 2.0
бітрейт: 192 кб/с
Інформація про озвучення:
Ролі озвучували: Джеймс Макевой - Андрій Федінчик, Михайло Войчук, Андрій Вільколек та один жіночий
Аудіо # 3:
мова: українська
переклад: багатоголосий закадровий
кодек: 2.0
бітрейт: 192 кб/с
Інформація про озвучення:
Ролі озвучували: Джеймс Макевой - Олександр Солодкий, Дмитро Терещук, Юрій Гребельник та Олена Бліннікова
Info:
Код:
C:\Users\Admin\Downloads\Wanted (2008) AVC [Open Matte] [3xUKR] [Hurtom].
   General
      Unique ID : 265612201081410097503634447258655567581 (0xC7D30C96200EC3A66240B5A05AFEAEDD)
      Complete name : C:\Users\Admin\Downloads\Wanted (2008) AVC [Open Matte] [3xUKR] [Hurtom].
      Format :
      Format version : Version 4 / Version 2
      File size : 2.42 GiB
      Duration : 1 h 49 min
      Overall bit rate : 3 152 kb/s
      Movie name : Wanted (2008) AVC [Open Matte] [3xUKR] [Hurtom]
      Encoded date : UTC 2018-05-01 18:28:59
      Writing application : v22.0.0 ('At The End Of The World') 32-bit
      Writing library : libebml v1.3.5 + v1.4.8
   Video #1
      ID : 1
      Format : AVC
      Format/Info : Advanced Video Codec
      Format profile : [email protected]
      Format settings, CABAC : Yes
      Format settings, ReFrames : 11 frames
      Codec ID : V_MPEG4/ISO/AVC
      Duration : 1 h 49 min
      Bit rate : 2 385 kb/s
      Width : 1 024 pixels
      Height : 576 pixels
      Display aspect ratio : 16:9
      Frame rate mode : Constant
      Frame rate : 23.976 (24000/1001) FPS
      Color space : YUV
      Chroma subsampling : 4:2:0
      Bit depth : 8 bits
      Scan type : Progressive
      Bits/(Pixel*Frame) : 0.169
      Stream size : 1.83 GiB (76%)
      Language : English
      Default : Yes
      Forced : No
      Color range : Limited
      Color primaries : BT.709
      Transfer characteristics : BT.709
      Matrix coefficients : BT.709
   Audio #2
      ID : 2
      Format : AC-3
      Format/Info : Audio Coding 3
      Mode extension : CM (complete main)
      Format settings, Endianness : Big
      Codec ID : A_AC3
      Duration : 1 h 49 min
      Bit rate mode : Constant
      Bit rate : 384 kb/s
      Channel(s) : 6 channels
      Channel positions : Front: L C R, Side: L R, LFE
      Sampling rate : 48.0 kHz
      Frame rate : 31.250 FPS (1536 spf)
      Compression mode : Lossy
      Delay relative to video : 4 ms
      Stream size : 302 MiB (12%)
      Title : DUB [DVD] 5.1 384 kbps
      Language : Ukrainian
      Default : Yes
      Forced : Yes
   Audio #3
      ID : 3
      Format : AC-3
      Format/Info : Audio Coding 3
      Mode extension : CM (complete main)
      Format settings, Endianness : Big
      Codec ID : A_AC3
      Duration : 1 h 49 min
      Bit rate mode : Constant
      Bit rate : 192 kb/s
      Channel(s) : 2 channels
      Channel positions : Front: L R
      Sampling rate : 48.0 kHz
      Frame rate : 31.250 FPS (1536 spf)
      Compression mode : Lossy
      Delay relative to video : 4 ms
      Stream size : 151 MiB (6%)
      Title : MVO [NLO TV] 2.0 192 kbps
      Language : Ukrainian
      Default : No
      Forced : No
   Audio #4
      ID : 4
      Format : AC-3
      Format/Info : Audio Coding 3
      Mode extension : CM (complete main)
      Format settings, Endianness : Big
      Codec ID : A_AC3
      Duration : 1 h 49 min
      Bit rate mode : Constant
      Bit rate : 192 kb/s
      Channel(s) : 2 channels
      Channel positions : Front: L R
      Sampling rate : 48.0 kHz
      Frame rate : 31.250 FPS (1536 spf)
      Compression mode : Lossy
      Delay relative to video : 4 ms
      Stream size : 151 MiB (6%)
      Title : MVO [HIT HD] 2.0 192 kbps
      Language : Ukrainian
      Default : No
      Forced : No
Скріншоти:




Величезні подяки:
1 доріжка - _oles
2 доріжка - запис - Bohdan237 , зведення - -_-В_E_N_D_E_R-_-
3 доріжка - запис - Sando7, зведення - Arsenfpu
за допомогу - igor911

Джерело: &





 Трекер:    Зареєстрований   

Завантажити / скачати фільм українською



відео для новачків



 Зареєстрований:   2018-05-01 21:00
 Розмір:   2.42 GB 
 Оцінка фільму:   8.5/10 (Голосів: 24)
   
igor911 
Модератор відео


З нами з: 18.01.08
Востаннє: 18.11.19
Повідомлень: 13664

2018-05-01 18:15  
21jumpstreet, для чого було видаляти попередній анонс https://toloka.to/t89625 ?
Адмін у Правила розділу "Анонси релізів" написано:

Прошу НІКОЛИ не переносити анонс у смітник. Замість того, щоб створювати нову тему, перенесіть його у відповідний розділ і додайте торрент.

Причина проста - Google проіндексує анонс, і, якщо він опиниться у смітнику, люди не зможуть з пошуку потрапити на ваш реліз.

omm 
Відео Гуртом - фільмокрай
Відео Гуртом - фільмокрай


З нами з: 12.06.12
Востаннє: 18.11.19
Повідомлень: 2351

2018-05-01 18:26  
На свій час виглядало досить бадьоро. Зараз сприймається як треш.
Абсурдність деяких моментів зашкалює.
5 з 10

21jumpstreet 
VIP


З нами з: 03.07.12
Востаннє: 18.11.19
Повідомлень: 721

2018-05-01 21:18  
Реліз оновлено!
Вимкнено режим стиснення заголовків Header striping, підписано доріжки, прибрано іншомовні теги.

MrRyanCooper 
VIP


З нами з: 23.08.12
Востаннє: 16.11.19
Повідомлень: 509

2018-05-04 21:09  
хм, 16:9, має бути гуд, дякую, зацінимо.
Ваш часовий пояс: GMT + 2 Години

Нова тема   Відповісти