Левина варта / The Lion Guard (Сезон 1) (2016) 1080p Ukr/Eng | Sub Eng

Нові коментарі

Нова тема   Відповісти
Автор Повідомлення
sergiyko.5 
Забанено
Забанено


З нами з: 25.02.16
Востаннє: 29.10.20
Повідомлень: 3648

2018-04-30 21:00  
Левина варта / The Lion Guard (Сезон 1) (2016) 1080p Ukr/Eng | Sub Eng


Левина варта / The Lion Guard (Сезон 1) (2016) 1080p Ukr/Eng | Sub Eng

Жанр: пригоди, комедія
Країна: США



Кінокомпанія: Disney Television Animation, Lioness Productions
Режисер: Хауі Паркінс

Сюжет:
"Левина варта" - це продовження історії Сімби, головного героя мультфільму "Король Лев". Левеня на ім'я Кайон – друге дитинча Сімби й Нали, молодший брат Кіари. Настав час, коли Кайон, несподівано для себе, опановує Рик Предків – здатність всіх других дітей королівської родини, завдяки якій стають лідерами Левиної Варти. Левина Варта – загін із 5 левів, що захищають землі прайду і коло життя: найлютіший лідер, найсміливіший, найсильніший, найшвидший і найпильніший. Але замість того, щоб зібрати загін левів, Кайон збирає товариство різних звірів, у здібностях і вірності яких упевнений.


Тривалість: 22:35 серія (загалом 26 серій з 26)
Якість:

Відео: кодек: розмір кадру: 1920 х 1080 бітрейт: 5100 кб/с
Аудіо 1: мова: українська переклад: професійний дубльований кодек: 2.0 бітрейт: 192 кб/с
Джерело озвучення:
Аудіо 2: мова: англійська переклад: оригінал кодек: ACC 2.0 бітрейт: 160 кб/с
Субтитри: мова: англійська тип: програмні (м'які) формат: *.srt
Перелік серій:
01. Бунт Маку
02. Бага примудрий
03. Не такі страшні гієни як їх малюють
04. Швидше б стати королевою
05. Краса в очах того хто дивиться
06. Свято Купатани
07. Нова сім'я Фулі
08. У пошуках Утаму
09. За бегемотом
10. Поклик Дронго
11. Пророчі малюнки
12. Переселення на луги Мбалі
13. Банга і король
14. Уявний Окапі
15. Забагато термітів
16. Клопіт з Галаго
17. Нова банда Джанжі
18. Бабуїни
19. Бережіться Зімві
20. Леви дикого краю
21. Останній рик
22. Горили-заблуди
23. У пошуках Удугу
24. Кумир для Оно
25. Стежки Бешті
26. Оно-шпак
Про файл:

General
Unique ID : 170025595236604604863579925833588821460 (0x7FE9BD0F8163BDD0056A6ACE22BE4DD4)
Complete name : E:\MULTFILMS\The Lion Guard S01 1080p \S01E01.The.Rise.of.Makuu.1080p..
Format :
Format version : Version 4 / Version 2
File size : 889 MiB
Duration : 22 min 35 s
Overall bit rate : 5 505 kb/s
Movie name : The Lion Guard S01 1080p by sergiyko
Encoded date : UTC 2018-05-03 06:04:24
Writing application : v23.0.0 ('The Bride Said No') 64-bit
Writing library : libebml v1.3.6 + v1.4.9

Video
ID : 1
Format : AVC
Format/Info : Advanced Video Codec
Format profile : [email protected]
Format settings, CABAC : Yes
Format settings, ReFrames : 4 frames
Codec ID : V_MPEG4/ISO/AVC
Duration : 22 min 35 s
Bit rate : 5 156 kb/s
Width : 1 920 pixels
Height : 1 080 pixels
Display aspect ratio : 16:9
Frame rate mode : Constant
Frame rate : 23.976 (24000/1001) FPS
Color space : YUV
Chroma subsampling : 4:2:0
Bit depth : 8 bits
Scan type : Progressive
Bits/(Pixel*Frame) : 0.104
Stream size : 833 MiB (94%)
Title : S01E01 The Rise of Makuu
Language : English
Default : Yes
Forced : No
Color range : Limited
Color primaries : BT.709
Transfer characteristics : BT.709
Matrix coefficients : BT.709

Audio #1
ID : 2
Format : AC-3
Format/Info : Audio Coding 3
Mode extension : CM (complete main)
Format settings, Endianness : Big
Codec ID : A_AC3
Duration : 22 min 35 s
Bit rate mode : Constant
Bit rate : 192 kb/s
Channel(s) : 2 channels
Channel positions : Front: L R
Sampling rate : 48.0 kHz
Frame rate : 31.250 FPS (1536 spf)
Bit depth : 16 bits
Compression mode : Lossy
Stream size : 31.0 MiB (3%)
Title : DUB | ПлюсПлюс
Language : Ukrainian
Default : Yes
Forced : Yes

Audio #2
ID : 3
Format :
Format/Info : Advanced Audio Codec
Format profile : LC
Codec ID : A_AAC
Duration : 22 min 35 s
Bit rate : 154 kb/s
Channel(s) : 2 channels
Channel positions : Front: L R
Sampling rate : 48.0 kHz
Frame rate : 46.875 FPS (1024 spf)
Compression mode : Lossy
Stream size : 24.9 MiB (3%)
Title : Original
Language : English
Default : No
Forced : No

Text
ID : 4
Format : UTF-8
Codec ID : S_TEXT/UTF8
Codec ID/Info : UTF-8 Plain Text
Duration : 22 min 32 s
Bit rate : 88 b/s
Count of elements : 460
Stream size : 14.6 KiB (0%)
Language : English
Default : No
Forced : No
Скріншоти:


Автор запису/зведення: sergiyko



Бронзовий реліз (на рейтинг впливає 75% завантаженого)
 Трекер:    Зареєстрований   

Завантажити / скачати мультфільм українською



відео для новачків



 Зареєстрований:   2018-12-11 16:59
 Розмір:   22.4 GB 
 Оцінка мультсеріалу:   9.1/10 (Голосів: 15)
   
sergiyko.5 
Забанено
Забанено


З нами з: 25.02.16
Востаннє: 29.10.20
Повідомлень: 3648

2018-05-04 22:31  
Додав 2-3 серії.
xslim 
Відео Гуртом - фільмокрай
Відео Гуртом - фільмокрай


З нами з: 05.03.09
Востаннє: 19.04.21
Повідомлень: 1417

2018-05-16 01:33  
sergiyko.5
Де продовження.

sergiyko.5 
Забанено
Забанено


З нами з: 25.02.16
Востаннє: 29.10.20
Повідомлень: 3648

2018-05-16 11:58  
xslim
Останніми днями було багато роботи:

Формула 1. Сезон 2018. Етап 5. Гран-Прі Іспанії. Гонка (13.05.2018) IPTV 1080p
Євробачення 2018. Фінал / Eurovision 2018. Final (12.05.2018) 720p 2xUkr
Євробачення 2018. Фінал / Eurovision 2018. Final (12.05.2018) HDTV 1080i 2xUkr
Формула 1. Сезон 2018. Етап 5. Гран-Прі Іспанії. Кваліфікація (12.05.2018) 720p Ukr/Dan
Євробачення 2018. Другий півфінал / Eurovision 2018. Second Semi-Final (10.05.2018) 1080p 2xUkr
Євробачення 2018. Перший півфінал / Eurovision 2018. First Semi-Final (08.05.2018) 720p 2xUkr
Євробачення 2018. Перший півфінал / Eurovision 2018. First Semi-Final (08.05.2018) HDTV 1080i 2xUkr
Євробачення 2018. Перший півфінал / Eurovision 2018. First Semi-Final (08.05.2018) AVC

А ви щось зробили корисного для користувачів за минулий місяць, чи так просто поговорить прийшли?

Додано через 45 хвилин 8 секунд:

Додав 4-7 серії.

sergiyko.5 
Забанено
Забанено


З нами з: 25.02.16
Востаннє: 29.10.20
Повідомлень: 3648

2018-05-16 22:37  
Додав 08-13,21 серії.
sergiyko.5 
Забанено
Забанено


З нами з: 25.02.16
Востаннє: 29.10.20
Повідомлень: 3648

2018-06-06 12:29  
Додав нові серії. Сезон повний.
radger 
Новенький


З нами з: 30.12.09
Востаннє: 01.04.21
Повідомлень: 2

2018-09-18 09:11  
Дякую за Вашу працю!
sergiyko.5 
Забанено
Забанено


З нами з: 25.02.16
Востаннє: 29.10.20
Повідомлень: 3648

2018-12-11 17:00  
Виправлена 18 серія. Торент оновлено.
Ваш часовий пояс: GMT + 2 Години

Нова тема   Відповісти