Ім'я (What's in a Name?) / Le prénom (2012) 720p Ukr/Fre | Sub Eng/Fre

Нові коментарі

Нова тема   Відповісти
Останній раз роздавалося [email protected] (2020-09-28)
Автор Повідомлення
Anonymous 







2018-04-30 19:03  
Ім'я / What's in a Name? / Le prénom (2012) 720p Ukr/Fre | Sub Eng/Fre

Ім'я (What's in a Name?) / Le prénom (2012) 720p Ukr/Fre | Sub Eng/Fre


Жанр: драма, комедія
Країна: Франція, Бельгія



Кінокомпанія: Chapter 2, Pathé, TF1 Films Production, M6 Films, Fargo Films, Nexus Factory, Canal+, Ciné+, TF1, M6, uFilm, uFund, Le Tax Shelter du Gouvernement Fédéral de Belgique, Umedia
Режисер: Александр де Ла Петільє / Alexandre de La Patellière, Матьє Делапорт / Matthieu Delaporte
Актори: Патрік Брюель / Patrick Bruel, Валері Бенґіґі / Valérie Benguigui, Шарль Берлінг / Charles Berling, Гійом де Тонкедек / Guillaume de Tonquédec, Джудіт Ель Зейн / Judith El Zein, Франсуаза Фабіан / Françoise Fabian, Яніс Леспер / Yaniss Lespert, Мірен Прадьє / Miren Pradier та інші

Сюжет:
Сімейна пара Елізабет і П'єр влаштовують звану вечерю, на яку запрошують усіх своїх рідних і близьких людей. Елізабет запрошує свого кращого друга дитинства Клода - музиканта, і відповідно володаря вельми тонкої натури. Так само на захід приїжджає і брат дівчини Вінсан, який до всього іншого кращий друг її чоловіка. Вінсан дуже гарний і галантний, тому користується великою популярністю у жінок, однак лише одній дівчині вдалося його роздобути.
Приводом для званої вечері стало швидке народження дитини, а точніше сімейна пара всіх запросила для того, щоб гості допомогли вибрати ім'я для малюка. Однак Елізабет і П'єр навіть уявити собі не могли, у що перетвориться ця вечеря.


Тривалість: 01:49:44
Якість: 720p [ріп від CRiSC]
Відео:
кодек:
розмір кадру: 1280x546
бітрейт: 6175 кб/с

Аудіо # 1:
мова: українська
переклад: багатоголосий закадровий
кодек: 2.0
бітрейт: 192 кб/с

Аудіо # 2:
мова: французька
переклад: оригінал
кодек: 5.1
бітрейт: 640 кб/с

Субтитри # 1:
мова: англійська (SDH)
тип: програмні (м'які)
формат: *.srt

Субтитри # 2:
мова: французька (SDH)
тип: програмні (м'які)
формат: *.srt

Збережено оригінальні розділи, як на Blu-ray
Info та log
Код:
Complete name               : Le prenom (2012) [Ukr,Fre sub.Eng,Fre] 720p [Hurtom].
Format                      :
Format version              : Version 4 / Version 2
File size                   : 5.37 GiB
Duration                    : 1 h 49 min
Overall bit rate            : 7 009 kb/s
Movie name                  : Ім'я / Le prénom (2012) [Ukr,Fre sub.Eng,Fre] 720p [Hurtom]
Released date               : 2012
Encoded date                : UTC 2018-05-01 06:21:38
Writing application         : v22.0.0 ('At The End Of The World') 64-bit
Writing library             : libebml v1.3.5 + v1.4.8
Cover                       : Yes
Comment                     : http://www.imdb.com/title/tt2179121/
Attachments                 : cover.jpg
ARTIST                      : Патрік Брюель / Patrick Bruel, Валері Бенґіґі / Valérie Benguigui, Шарль Берлінг /   Charles Berling, Гійом де Тонкедек / Guillaume de Tonquédec, Джудіт Ель Зейн / Judith El Zein, Франсуаза Фабіан / Françoise Fabian, Яніс Лесперт / Yaniss Lespert, Мірен Прадьє / Miren Pradier та інші
DIRECTOR                    : Александр де Ла Петільє / Alexandre de La Patellière, Матьє Делапорт / Matthieu Delaporte
GENRE                       : драма, комедія
SYNOPSIS                    : Вінсент святкує, бо вперше стане батьком. Запрошений на вечерю до сестри Елізабет і П'єра, її чоловіка, він зустрічає Клода, свого друга дитинства. В очікуванні прибуття Анни, його молодої дружини, він задає безліч питань про його майбутнє батьківство... Але коли Вінсента запитали про ім'я для майбутньої дитини, його відповідь здивувала всіх...
Url                         : https://toloka.to/t89638

Video
ID                          : 1
Format                      : AVC
Format/Info                 : Advanced Video Codec
Format profile              : [email protected]
Format settings             : CABAC / 11 Ref Frames
Format settings, CABAC      : Yes
Format settings, ReFrames   : 11 frames
Codec ID                    : V_MPEG4/ISO/AVC
Duration                    : 1 h 49 min
Bit rate                    : 6 175 kb/s
Width                       : 1 280 pixels
Height                      : 546 pixels
Display aspect ratio        : 2.35:1
Frame rate mode             : Constant
Frame rate                  : 24.000 FPS
Color space                 : YUV
Chroma subsampling          : 4:2:0
Bit depth                   : 8 bits
Scan type                   : Progressive
Bits/(Pixel*Frame)          : 0.368
Stream size                 : 4.73 GiB (88%)
Title                       : Ім'я / Le prénom (2012) 720p [CRiSC]
Writing library             : core 129 r2245kMod bc13772
Encoding settings           : cabac=1 / ref=11 / deblock=1:-3:-3 / analyse=0x3:0x133 / me=umh / subme=11 / psy=1 / fade_compensate=0.00 / psy_rd=1.05:0.00 / mixed_ref=1 / me_range=96 / chroma_me=1 / trellis=2 / 8x8dct=1 / cqm=0 / deadzone=21,11 / fast_pskip=0 / chroma_qp_offset=-2 / threads=12 / lookahead_threads=2 / sliced_threads=0 / nr=0 / decimate=0 / interlaced=0 / bluray_compat=0 / constrained_intra=0 / bframes=9 / b_pyramid=2 / b_adapt=2 / b_bias=0 / direct=3 / weightb=1 / open_gop=0 / weightp=2 / keyint=250 / keyint_min=24 / scenecut=40 / intra_refresh=0 / rc_lookahead=40 / rc=crf / mbtree=0 / crf=17.0000 / qcomp=0.75 / qpmin=0 / qpmax=69 / qpstep=4 / vbv_maxrate=50000 / vbv_bufsize=62500 / crf_max=0.0 / nal_hrd=none / ip_ratio=1.40 / pb_ratio=1.30 / aq=1:0.60
Language                    : French
Default                     : Yes
Forced                      : No
Color range                 : Limited
Color primaries             : BT.709
Transfer characteristics    : BT.709
Matrix coefficients         : BT.709

Audio #1
ID                          : 2
Format                      : AC-3
Format/Info                 : Audio Coding 3
Codec ID                    : A_AC3
Duration                    : 1 h 49 min
Bit rate mode               : Constant
Bit rate                    : 192 kb/s
Channel(s)                  : 2 channels
Channel positions           : Front: L R
Sampling rate               : 48.0 kHz
Frame rate                  : 31.250 FPS (1536 SPF)
Bit depth                   : 16 bits
Compression mode            : Lossy
Stream size                 : 151 MiB (3%)
Title                       : MVO [K1] 2.0 192 Kbps
Language                    : Ukrainian
Service kind                : Complete Main
Default                     : Yes
Forced                      : Yes

Audio #2
ID                          : 3
Format                      : AC-3
Format/Info                 : Audio Coding 3
Codec ID                    : A_AC3
Duration                    : 1 h 49 min
Bit rate mode               : Constant
Bit rate                    : 640 kb/s
Channel(s)                  : 6 channels
Channel positions           : Front: L C R, Side: L R, LFE
Sampling rate               : 48.0 kHz
Frame rate                  : 31.250 FPS (1536 SPF)
Bit depth                   : 16 bits
Compression mode            : Lossy
Stream size                 : 502 MiB (9%)
Title                       : Original, 5.1 640 kbps
Language                    : French
Service kind                : Complete Main
Default                     : No
Forced                      : No

Text #1
ID                          : 4
Format                      : UTF-8
Codec ID                    : S_TEXT/UTF8
Codec ID/Info               : UTF-8 Plain Text
Duration                    : 1 h 45 min
Bit rate                    : 104 b/s
Count of elements           : 2063
Stream size                 : 80.4 KiB (0%)
Title                       : Eng SDH
Language                    : English
Default                     : No
Forced                      : No

Text #2
ID                          : 5
Format                      : UTF-8
Codec ID                    : S_TEXT/UTF8
Codec ID/Info               : UTF-8 Plain Text
Duration                    : 1 h 49 min
Bit rate                    : 85 b/s
Count of elements           : 2056
Stream size                 : 68.4 KiB (0%)
Title                       : Fre SDH
Language                    : French
Default                     : No
Forced                      : No

Menu
00:00:00.000                : en:00:00:00.000
00:09:53.750                : en:00:09:53.750
00:20:28.750                : en:00:20:28.750
00:31:01.625                : en:00:31:01.625
00:40:19.917                : en:00:40:19.917
00:47:13.083                : en:00:47:13.083
00:55:47.292                : en:00:55:47.292
01:05:42.875                : en:01:05:42.875
01:14:38.458                : en:01:14:38.458
01:27:31.875                : en:01:27:31.875
01:41:33.417                : en:01:41:33.417
01:45:15.292                : en:01:45:15.292


Код:
[info]: profile High, level 4.1
[info]: frame I:1869  Avg QP:15.40  size:124676
[info]: frame P:30009 Avg QP:16.97  size: 57637
[info]: frame B:126136 Avg QP:19.24  size: 24728
[info]: consecutive B-frames:  1.9%  0.9%  3.8% 10.3% 18.6% 49.9%  8.9%  2.4%  1.7%  1.5%
encoded 158014 frames, 6.51 fps, 6174.68 kb/s
Оригінал <----------> Ріп




Джерело: &
Подяка за українську доріжку п.Bohdan237 та автору реліза-першоджерела


 Трекер:    Зареєстрований   

Завантажити / скачати фільм українською



відео для новачків



 Зареєстрований:   2018-05-01 09:34
 Розмір:   5.37 GB 
 Оцінка фільму:   9.6/10 (Голосів: 15)
   
Інші релізи
   Ім'я (What's in a Name?) / Le prénom (2012) 1080p Ukr/Fre | Sub Eng/Fre staf777  3 / 0   8.09 GB   2018-05-10 15:40 
   Ім'я / Le prénom (2012) drop_plz  7 / 0   1.46 GB   2018-04-30 18:26 
vcbk 
Новенький


З нами з: 22.10.16
Востаннє: 30.07.20
Повідомлень: 12

2018-05-01 22:15  
Фільм - бомба.
Раджу дивитись з друзями, особливо з тими, хто очікує на дитину Wink (1)

Custo 12 
Свій


З нами з: 08.11.16
Востаннє: 21.09.20
Повідомлень: 148

2018-05-02 17:59  
Фільм чудесний! А як тут можна зберігати закладки?
Anonymous 







2018-05-02 18:01  
Custo 12 написано:
А як тут можна зберігати закладки?

Ніяк. Використовуй сторонні рішення або можливості браузера.

jokersmart 
Новенький


З нами з: 15.01.16
Востаннє: 26.09.20
Повідомлень: 7

2018-05-03 23:19  
10\10

Дуже нагадало Perfetti Sconosciuti

waldi-hurtom 
VIP


З нами з: 07.10.12
Востаннє: 28.09.20
Повідомлень: 1182

2018-05-04 21:20  
Як на мене, цей фільм кращій за італійських Ідеальних незнайомців. Тільки опис дещо збиває з пантелику. Таке враження, що автор подивився лише початок фільму. А дивитись треба в компанії. 8 з 10. Дякую за реліз!
Wowatorrent 
Поважний учасник


З нами з: 24.03.16
Востаннє: 28.09.20
Повідомлень: 174

2018-05-06 19:40  
Не осилив - якась безглузда дискусія.
Ruslan Kozak 
Частий відвідувач


З нами з: 17.06.16
Востаннє: 24.09.20
Повідомлень: 33

2018-05-08 17:54  
Чудовий приклад інтелектуального, європейського кіно. Голлівуд такого не знімає.
vcbk 
Новенький


З нами з: 22.10.16
Востаннє: 30.07.20
Повідомлень: 12

2018-05-10 09:29  
Anonymous написано:
А як тут можна зберігати закладки?

Можна так:
Справа в кутку натискаєте сердечко і воно зберігається у вас "Відстежувальні теми"!

00user00 
Новенький


З нами з: 22.12.14
Востаннє: 05.09.20
Повідомлень: 9

2018-05-22 00:52  
Гарний фільм.
zhman 
VIP


З нами з: 21.12.14
Востаннє: 28.09.20
Повідомлень: 279

2020-03-22 11:53  
отримав не абияке задоволення від перегляду. Хоча довго не наважувався подивитися через опис фільму. Мені здається, через подібні недолугі анотації люди втрачають нагоду переглянути дійсно вартий продукт
Breton 
Частий відвідувач


З нами з: 26.05.12
Востаннє: 27.09.20
Повідомлень: 36

2020-03-22 12:23  
Фільм чудовий , особливо деякі повороти і теми які виникають. Дуже сподобався.
Anonymous 







2020-03-22 12:49  
zhman написано:
не наважувався подивитися через опис фільму

змінив опис

zhman 
VIP


З нами з: 21.12.14
Востаннє: 28.09.20
Повідомлень: 279

2020-03-24 22:42  
Anonymous
о, ну тепер зовсім інша справа!

Ваш часовий пояс: GMT + 2 Години

Нова тема   Відповісти