Сліпа лють / Blind Fury (1989) AVC 2xUkr/Eng | Sub Eng

Нові коментарі

Нова тема   Відповісти
Автор Повідомлення
Anonymous 







2018-04-30 07:56  
Сліпа лють / Blind Fury (1989) AVC 2xUkr/Eng | Sub Eng

Сліпа лють / Blind Fury (1989) AVC 2xUkr/Eng | Sub Eng


Жанр: бойовик, трилер, драма, комедія, кримінальний
Країна: США



Кінокомпанія: TriStar Pictures, Interscope Communications
Режисер: Філіп Нойс
Актори: Рутґер Гауер, Террі О’Квінн, Брендон Колл, Ноубл Віллінгем, Ліза Блонт, Нік Касаветіс, Рік Овертон

Сюжет:
На перший погляд він безпомічний сліпий, один з тисяч нещасних безпритульних. Але не варто занадто покладатися на власний зір ... Ветеран В'єтнаму Нік Паркер осліп на війні, але жорстокий Схід навчив свою жертву великому мистецтву захисту.

Повернувшись до мирного життя, колишній солдат вимушений знову вступити в бій. Ніку не потрібно бачити своїх ворогів. Сліпа лють приведе його прямо до них ...


Тривалість: 01:26:26
Якість:
Відео:
кодек:
розмір кадру: 1024 х 576
бітрейт: 2 503 кб/с

Аудіо # 1: ТТП для

мова: українська
переклад: багатоголосий закадровий
кодек: 2.0
бітрейт: 192 кб/с

Аудіо # 2: ТТП для | |
мова: українська
переклад: багатоголосий закадровий
кодек: 2.0
бітрейт: 192 кб/с

Аудіо # 3:
мова: англійська
переклад: оригінал
кодек: 2.0
бітрейт: 192 кб/с

Субтитри:
мова: англійська
тип: програмні (м'які)
формат: *.srt
Скріншоти








Info
General
Unique ID : 11055746970170442522435682986912557962 (0x85142690128DDCE6A581B5C71C2AB8A)
Complete name : E:\films\Blind Fury (1989) AVC [2xukr.eng] Hurtom.
Format :
Format version : Version 4 / Version 2
File size : 1.86 GiB
Duration : 1 h 26 min
Overall bit rate : 3 081 kb/s
Encoded date : UTC 2018-04-29 22:23:37
Writing application : v21.0.0 ('Tardigrades Will Inherit The Earth') 64-bit
Writing library : libebml v1.3.5 + v1.4.8

Video
ID : 1
Format : AVC
Format/Info : Advanced Video Codec
Format profile : [email protected]
Format settings, CABAC : Yes
Format settings, ReFrames : 3 frames
Codec ID : V_MPEG4/ISO/AVC
Duration : 1 h 26 min
Bit rate : 2 503 kb/s
Width : 1 024 pixels
Height : 576 pixels
Display aspect ratio : 16:9
Frame rate mode : Constant
Frame rate : 23.976 (24000/1001) FPS
Color space : YUV
Chroma subsampling : 4:2:0
Bit depth : 8 bits
Scan type : Progressive
Bits/(Pixel*Frame) : 0.177
Stream size : 1.51 GiB (81%)
Writing library : core 155 r2901 7d0ff22
Encoding settings : cabac=1 / ref=3 / deblock=1:0:0 / analyse=0x1:0x111 / me=hex / subme=8 / psy=1 / psy_rd=1.00:0.00 / mixed_ref=1 / me_range=16 / chroma_me=1 / trellis=2 / 8x8dct=0 / cqm=0 / deadzone=21,11 / fast_pskip=1 / chroma_qp_offset=-2 / threads=12 / lookahead_threads=2 / sliced_threads=0 / nr=0 / decimate=1 / interlaced=0 / bluray_compat=0 / constrained_intra=0 / bframes=3 / b_pyramid=0 / b_adapt=1 / b_bias=0 / direct=1 / weightb=1 / open_gop=0 / weightp=2 / keyint=240 / keyint_min=23 / scenecut=40 / intra_refresh=0 / rc_lookahead=40 / rc=crf / mbtree=1 / crf=21.0 / qcomp=0.60 / qpmin=0 / qpmax=69 / qpstep=4 / vbv_maxrate=14000 / vbv_bufsize=14000 / crf_max=0.0 / nal_hrd=none / filler=0 / ip_ratio=1.40 / aq=1:1.00
Default : Yes
Forced : No

Audio #1
ID : 2
Format : AC-3
Format/Info : Audio Coding 3
Mode extension : CM (complete main)
Format settings, Endianness : Big
Codec ID : A_AC3
Duration : 1 h 26 min
Bit rate mode : Constant
Bit rate : 192 kb/s
Channel(s) : 2 channels
Channel positions : Front: L R
Sampling rate : 48.0 kHz
Frame rate : 31.250 FPS (1536 spf)
Bit depth : 16 bits
Compression mode : Lossy
Stream size : 119 MiB (6%)
Title : ICTV channel
Language : Ukrainian
Default : Yes
Forced : Yes

Audio #2
ID : 3
Format : AC-3
Format/Info : Audio Coding 3
Mode extension : CM (complete main)
Format settings, Endianness : Big
Codec ID : A_AC3
Duration : 1 h 26 min
Bit rate mode : Constant
Bit rate : 192 kb/s
Channel(s) : 2 channels
Channel positions : Front: L R
Sampling rate : 48.0 kHz
Frame rate : 31.250 FPS (1536 spf)
Bit depth : 16 bits
Compression mode : Lossy
Stream size : 119 MiB (6%)
Title : INTER, K1 channel
Language : Ukrainian
Default : No
Forced : No

Audio #3
ID : 4
Format : AC-3
Format/Info : Audio Coding 3
Mode extension : CM (complete main)
Format settings, Endianness : Big
Codec ID : A_AC3
Duration : 1 h 26 min
Bit rate mode : Constant
Bit rate : 192 kb/s
Channel(s) : 2 channels
Channel positions : Front: L R
Sampling rate : 48.0 kHz
Frame rate : 31.250 FPS (1536 spf)
Bit depth : 16 bits
Compression mode : Lossy
Stream size : 119 MiB (6%)
Title : original
Language : English
Default : No
Forced : No

Text
ID : 5
Format : UTF-8
Codec ID : S_TEXT/UTF8
Codec ID/Info : UTF-8 Plain Text
Duration : 1 h 21 min
Bit rate : 31 b/s
Count of elements : 671
Stream size : 18.7 KiB (0%)
Default : Yes
Forced : No
Другу доріжку взяв звідси, за що вдячний авторам теми!

Джерело:


Срібний реліз (на рейтинг впливає 50% завантаженого)
 Трекер:    Зареєстрований   

Завантажити / скачати фільм українською



відео для новачків



 Зареєстрований:   2018-04-30 07:56
 Розмір:   1.86 GB 
 Оцінка фільму:   9.7/10 (Голосів: 6)
   
Інші релізи
   Сліпа лють / Blind Fury (1989) 2xUkr/Eng | Sub Eng igor911  3 / 0   1.45 GB   2018-04-30 09:16 
   Сліпа лють / Blind Fury (1989) 720p Ukr/Eng | Sub Eng staf777  2 / 0   6.24 GB   2017-01-03 17:08 
pvm65 
Свій


З нами з: 02.01.16
Востаннє: 17.11.19
Повідомлень: 105

2018-05-04 17:14  
"Повернувшись" це круть
Ваш часовий пояс: GMT + 2 Години

Нова тема   Відповісти