Формула 1. Сезон 2018. Етап 4. Гран-Прі Азербайджану. Гонка (29.04.2018) HDTV 1080i

Нові коментарі

Нова тема   Відповісти
Автор Повідомлення
sergiyko.5 
VIP


З нами з: 25.02.16
Востаннє: 25.10.20
Повідомлень: 3615

2018-04-29 19:19  
Формула 1. Сезон 2018. Етап 4. Гран-Прі Азербайджану. Гонка (29.04.2018) HDTV 1080i


Формула 1. Сезон 2018. Етап 4. Гран-Прі Азербайджану. Гонка (29.04.2018) HDTV 1080i

Жанр: Перегони Формула 1
Країна: Азербайджан
Телеканал: Перший автомобільний (звук), Матч ТБ (відео)
Коментатор: Максим Подзігун

Опис:
Гонка четвертого сезону Гран-Прі Азербайджану 2018 року відбулась 29 квітня о 15:00 годині за київським часом.


Тривалість: 02:16:21
Якість: HDTV

Відео: кодек: розмір кадру: 1920 х 1080 бітрейт: 8900 кб/с
Аудіо: мова: українська кодек: MP2 2.0 бітрейт: 192 кб/с
Про файл:
General
Unique ID : 66855199361781028080379944616837676127 (0x324BD7D16570D0CFFCA4F7DB6EAE7C5F)
Complete name : D:\Torrents\SPORT\Formula 1\F1.2018.Race\F1.2018.04.Azerbaijan.Race.1080i.HDTV.Ukr.
Format :
Format version : Version 4 / Version 2
File size : 8.53 GiB
Duration : 2 h 16 min
Overall bit rate : 8 957 kb/s
Encoded date : UTC 2018-04-29 15:56:44
Writing application : v22.0.0 ('At The End Of The World') 64-bit
Writing library : libebml v1.3.5 + v1.4.8

Video
ID : 1
Format : AVC
Format/Info : Advanced Video Codec
Format profile : [email protected]
Format settings, CABAC : Yes
Format settings, ReFrames : 4 frames
Codec ID : V_MPEG4/ISO/AVC
Duration : 2 h 16 min
Bit rate : 8 762 kb/s
Width : 1 920 pixels
Height : 1 080 pixels
Display aspect ratio : 16:9
Frame rate mode : Variable
Frame rate : 50.000 FPS
Original frame rate : 25.000 FPS
Standard : Component
Color space : YUV
Chroma subsampling : 4:2:0
Bit depth : 8 bits
Scan type : Interlaced
Scan type, store method : Separated fields
Scan order : Top Field First
Bits/(Pixel*Frame) : 0.085
Stream size : 8.34 GiB (98%)
Language : English
Default : Yes
Forced : No
Color range : Limited
Color primaries : BT.709
Transfer characteristics : BT.709
Matrix coefficients : BT.709

Audio
ID : 2
Format : MPEG Audio
Format version : Version 1
Format profile : Layer 2
Codec ID : A_MPEG/L2
Codec ID/Hint : MP2
Duration : 2 h 16 min
Bit rate mode : Constant
Bit rate : 192 kb/s
Channel(s) : 2 channels
Sampling rate : 48.0 kHz
Frame rate : 41.667 FPS (1152 spf)
Compression mode : Lossy
Delay relative to video : 136 ms
Stream size : 187 MiB (2%)
Title : 1 Авто | Максим Подзігун
Language : Ukrainian
Default : Yes
Forced : No
Скріншоти:


Автор запису/зведення: sergiyko


 Трекер:    Зареєстрований   

Завантажити / скачати торрент



відео для новачків



 Зареєстрований:   2018-04-29 19:19
 Розмір:   8.53 GB 
 Оцінка:   10/10 (Голосів: 11)
   
VicCob 
Свій


З нами з: 16.06.10
Востаннє: 25.10.20
Повідомлень: 58

2018-04-29 20:26  
Дякую! Happy
[email protected] 
Новенький


З нами з: 07.01.17
Востаннє: 24.10.20
Повідомлень: 2

2018-04-29 23:31  
дякуюююююю
Artyomperec 
Новенький


З нами з: 15.07.11
Востаннє: 25.10.20
Повідомлень: 1

2018-04-29 23:53  
+
VicCob 
Свій


З нами з: 16.06.10
Востаннє: 25.10.20
Повідомлень: 58

2018-05-01 22:33  
Чому відео з окупаційного каналу? :/ Невже нема з першого автомобільного чи зі скайспорт?
Ваш часовий пояс: GMT + 2 Години

Нова тема   Відповісти