Формула 1. Сезон 2018. Етап 4. Гран-Прі Азербайджану. Гонка (29.04.2018) 720p

Нові коментарі

Нова тема   Відповісти
Автор Повідомлення
sergiyko.5 
VIP


З нами з: 25.02.16
Востаннє: 22.10.20
Повідомлень: 3610

2018-04-29 18:30  
Формула 1. Сезон 2018. Етап 4. Гран-Прі Азербайджану. Гонка (28.04.2018) 720p


Формула 1. Сезон 2018. Етап 4. Гран-Прі Азербайджану. Гонка (29.04.2018) 720p

Жанр: Перегони Формула 1
Країна: Азербайджан
Телеканал: Перший автомобільний (звук), Матч ТБ (відео)
Коментатор: Максим Подзігун

Опис:
Гонка четвертого сезону Гран-Прі Азербайджану 2018 року відбулась 29 квітня о 15:00 годині за київським часом.


Тривалість: 02:16:26
Якість:

Відео: кодек: розмір кадру: 1280 х 720 бітрейт: 4000 кб/с
Аудіо: мова: українська кодек: MP2 2.0 бітрейт: 192 кб/с
Про файл:
General
Unique ID : 18312091171869720239994890996485009019 (0xDC6C7CD17E215E8419DDF39B9152E7B)
Complete name : D:\Torrents\SPORT\Formula 1\F1.2018.Race\F1.2018.04.Azerbaijan.Race.720p..Ukr.
Format :
Format version : Version 4 / Version 2
File size : 3.99 GiB
Duration : 2 h 16 min
Overall bit rate : 4 188 kb/s
Encoded date : UTC 2018-04-29 15:23:10
Writing application : v22.0.0 ('At The End Of The World') 64-bit
Writing library : libebml v1.3.5 + v1.4.8

Video
ID : 1
Format : AVC
Format/Info : Advanced Video Codec
Format profile : [email protected]
Format settings, CABAC : Yes
Format settings, ReFrames : 4 frames
Codec ID : V_MPEG4/ISO/AVC
Duration : 2 h 16 min
Bit rate : 3 992 kb/s
Width : 1 280 pixels
Height : 720 pixels
Display aspect ratio : 16:9
Frame rate mode : Constant
Frame rate : 50.000 FPS
Color space : YUV
Chroma subsampling : 4:2:0
Bit depth : 8 bits
Scan type : Progressive
Bits/(Pixel*Frame) : 0.087
Stream size : 3.80 GiB (95%)
Language : English
Default : Yes
Forced : No
Color range : Limited
Color primaries : BT.709
Transfer characteristics : BT.709
Matrix coefficients : BT.709

Audio
ID : 2
Format : MPEG Audio
Format version : Version 1
Format profile : Layer 2
Codec ID : A_MPEG/L2
Codec ID/Hint : MP2
Duration : 2 h 16 min
Bit rate mode : Constant
Bit rate : 192 kb/s
Channel(s) : 2 channels
Sampling rate : 48.0 kHz
Frame rate : 41.667 FPS (1152 spf)
Compression mode : Lossy
Delay relative to video : 4 ms
Stream size : 187 MiB (5%)
Title : 1 авто | Максим Подзігун
Language : Ukrainian
Default : Yes
Forced : No
Скріншоти:


Автор запису/зведення: sergiyko


 Трекер:    Зареєстрований   

Завантажити / скачати торрент



відео для новачків



 Зареєстрований:   2018-04-29 18:30
 Розмір:   3.99 GB 
 Оцінка:   9.9/10 (Голосів: 30)
   
vova6231 
Новенький


З нами з: 11.04.17
Востаннє: 29.04.18
Повідомлень: 1

2018-04-29 18:34  
дякую
familyprytoliuk 
Новенький


З нами з: 29.08.16
Востаннє: 10.04.19
Повідомлень: 1

2018-04-29 20:00  
дякую!!!
kurjoz 
Новенький


З нами з: 07.05.15
Востаннє: 27.01.20
Повідомлень: 1

2018-04-29 21:56  
Подякував! Вберегли від спойлерів )
nemets13 
Новенький


З нами з: 30.04.18
Востаннє: 12.10.20
Повідомлень: 1

2018-04-30 05:58  
Дуже дякую !
onufriienkodr 
Новенький


З нами з: 08.04.18
Востаннє: 01.05.18
Повідомлень: 1

2018-05-01 15:32  
А може ще є запис квали?
sergiyko.5 
VIP


З нами з: 25.02.16
Востаннє: 22.10.20
Повідомлень: 3610

2018-05-01 16:50  
onufriienkodr написано:
А може ще є запис квали?

є

Berenices 
Новенький


З нами з: 03.06.15
Востаннє: 22.10.20
Повідомлень: 11

2018-05-05 16:01  
Будь ласка, більше не використовуйте відеодоріжку із російських телеканалів. Гидко бачити навіть логотип.

Макс Подзігун вкупі зі Sky – це було ідеально.

sergiyko.5 
VIP


З нами з: 25.02.16
Востаннє: 22.10.20
Повідомлень: 3610

2018-05-05 16:10  
Хлопці!!! НЕМАЄ іншого відео на час роботи з релізом.


Або беріть те що є, або нічого не буде!

Ваш часовий пояс: GMT + 2 Години

Нова тема   Відповісти