Дивні Дива (Сезон 1) / Stranger Things (Season 1) (2016)

Нові коментарі

Нова тема   Відповісти
Автор Повідомлення
mr. blef 
Частий відвідувач


З нами з: 26.02.18
Востаннє: 09.02.19
Повідомлень: 41

2018-04-29 13:08  
Дивні Дива (Сезон 1) / Stranger Things (Season 1) (2016)

Дивні Дива (Сезон 1) / Stranger Things (Season 1) (2016)


Жанр: психологічний, трилер, жахи, фантастика, пригодницький
Країна: США



Кінокомпанія: Netflix
Режисер: Метт Даффер, Росс Даффер, Шон Леві
Актори/ролі озвучують: Вайнона Райдер, Девід Гарбор, Фін Вулфард, Майллі Боббі Браун, Гейтен Матараццо, Калеб Маклафлін, Наталія Дайер, Чарлі Гітон, Кара Буоно, Меттью Модайн.

Сюжет:
6 листопада 1983 року в штаті Індіана таємничим чином зникає 12-річний Вілл Баєрс. Мати зниклого хлопчика, Джойс (Вайнона Райдер), не знаходить собі місця, намагаючись знайти сина. За допомогою вона звертається до начальника поліції Гоппера (Девід Гарбор), який починає розслідування зникнення. Друзі Вілла теж вирушають на пошуки зниклого, але зустрічають у лісі дівчинку з незвичайними здібностями (Міллі Боббі Браун), яка щось знає про їх зниклого друга.


Тривалість: 1 серія: 45:00 (цілком серій: 8)
Перелік серій
Глава перша. Зникнення Вілла Баєрса

Глава друга. Дивачка з Мейпл-стріт

Глава третя. Світло ліхтариків

Глава четверта. Тіло

Глава п'ята. Блоха і акробат

Глава шоста. Почвара

Глава сьома. Ванна

Глава восьма. Догори дриґом
Якість: [mr. blef]
Відео:
кодек:
розмір кадру: 704х352
бітрейт: 1999 кб/с

Аудіо:
мова: українська
переклад: багатоголосий закадровий [Т.С. Cтруґачка]
кодек: 2.0
бітрейт: 320 кб/с
Скріншоти







Info
Код:

D:\Фільми\Download\Stranger Things (Season 1) (2016) by _mr. blef [Hurtom]\Stranger Things [S01E01] (2016) by _mr. blef [Hurtom].avi
   General
      Complete name : D:\Фільми\Download\Stranger Things (Season 1) (2016) by _mr. blef [Hurtom]\Stranger Things [S01E01] (2016) by _mr. blef [Hurtom].avi
      Format : AVI
      Format/Info : Audio Video Interleave
      File size : 791 MiB
      Duration : 47mn 30s
      Overall bit rate : 2 328 Kbps
      Writing application : VirtualDubMod 1.5.10.3 | www.virtualdub-fr.org || (build 2550/release)
      Writing library : VirtualDubMod build 2550/release
   Video #0
      ID : 0
      Format : MPEG-4 Visual
      Format profile : Advanced [email protected]
      Format settings, BVOP : 1
      Format settings, QPel : No
      Format settings, GMC : No warppoints
      Format settings, Matrix : Default (MPEG)
      Codec ID :
      Codec ID/Hint :
      Duration : 47mn 30s
      Bit rate : 1 999 Kbps
      Width : 704 pixels
      Height : 352 pixels
      Display aspect ratio : 2.000
      Frame rate : 23.976 fps
      Color space : YUV
      Chroma subsampling : 4:2:0
      Bit depth : 8 bits
      Scan type : Progressive
      Compression mode : Lossy
      Bits/(Pixel*Frame) : 0.336
      Stream size : 679 MiB (86%)
      Writing library : 73
   Audio #1
      ID : 1
      Format : AC-3
      Format/Info : Audio Coding 3
      Mode extension : CM (complete main)
      Codec ID : 2000
      Duration : 47mn 30s
      Bit rate mode : Constant
      Bit rate : 320 Kbps
      Channel(s) : 2 channels
      Channel positions : Front: L R
      Sampling rate : 48.0 KHz
      Bit depth : 16 bits
      Compression mode : Lossy
      Stream size : 109 MiB (14%)
      Alignment : Split accross interleaves
      Interleave, duration : 42 ms (1.00 video frame)
      Interleave, preload duration : 500 ms
Джерело:
Особиста оцінка: 10 - без зайвих вагань рекомендую всім!



Авторський реліз (завантажувати можна без реєстрації)
 Трекер:    Зареєстрований   

Завантажити / скачати серіал українською



відео для новачків



 Зареєстрований:   2018-04-29 18:06
 Розмір:   6.48 GB 
 Оцінка серіалу:   9.9/10 (Голосів: 23)
   
boroznaya 
Попереджень: 1
Попереджень: 1 


З нами з: 02.11.12
Востаннє: 15.02.19
Повідомлень: 2967

2018-04-29 18:20  
Дивні Дива - один з кращих серіалів, що мені доводилось бачити за останні роки.
Шкода тільки, що з SD-релізом даного творіння так сильно запізнились...
Мова йде про те, що переважна більшість глядачів вже переглянули серіал.
Хто цього ще не зробив - рекомендую! За старання та реліз від мене 10/10!
Вітаю з першим релізом, колего!

mr. blef 
Частий відвідувач


З нами з: 26.02.18
Востаннє: 09.02.19
Повідомлень: 41

2018-04-30 20:53  
boroznaya, щиро вдячний!
MrRyanCooper 
VIP


З нами з: 23.08.12
Востаннє: 03.02.19
Повідомлень: 491

2018-07-28 17:58  
блін, капец, а я якраз на днях хотів починати дивитися на рос
дивом натрапив, що є на нашій мові
1000дяків

Blanove 
Свій


З нами з: 01.05.15
Востаннє: 05.02.19
Повідомлень: 110

2018-07-29 21:03  
Ха, крутяк, аж не віриться. А мій знайомий казав, що ще багато місяців треба чекати коли по ТБ покажуть на українській та хтось запише звук. І він вже подивився багато серій на російській. Треба було з ним закластися на сотку, що Толока викладе в 2018-му на нашій Happy
Буду тепер дивитися з радістю.

Electroz 
Відео Гуртом - підтримка та поширення
Відео Гуртом - підтримка та поширення


З нами з: 18.09.14
Востаннє: 16.02.19
Повідомлень: 3212

2018-07-29 21:35  
Blanove
Перший сезон вже півтори роки існує в українському озвученні.
Користуйтеся пошуком, другий також наявний.
https://toloka.to/t76521

MrRyanCooper 
VIP


З нами з: 23.08.12
Востаннє: 03.02.19
Повідомлень: 491

2018-08-21 21:39  
Electroz написано:
Перший сезон вже півтори роки існує в українському озвученні.

вдячний вам Happy

Ваш часовий пояс: GMT + 2 Години

Нова тема   Відповісти