Легіон (Сезон 1) / Legion (Season 1) (2017) 1080p H.265

Нові коментарі

Нова тема   Відповісти
Автор Повідомлення
ukr_anonymous 
Забанено
Забанено


З нами з: 16.04.18
Востаннє: 17.11.19
Повідомлень: 233

2018-04-29 00:39  
Легіон (Сезон 1) / Legion (Season 1) (2017) 1080p H.265

Легіон (Сезон 1) / Legion (Season 1) (2017) 1080p H.265

Жанр: фантастика, драма, екшн
Країна: США



Кінокомпанія: 20th Century Fox Television, 26 Keys Productions, Bad Hat Harry Productions
Режисер: Ной Гоулі
Актори: Ден Стівенс, Рейчел Келлер, Обрі Плаза, Білл Ірвін, Джеремі Герріс, Джин Смарт та інші

Сюжет:
Ще в дитинстві Девіду Голлеру було поставлено діагноз шизофренія і відтоді він був постійним пацієнтом різних психіатричних закладів. Після знайомства із пацієнткою на ім'я Сідні Барретт, стає очевидним, що голоси й видіння, які чує і бачить Девід, викликані не лише його хворобою...


Тривалість: 1 серія: ~40 хв. (цілком серій: 8)
Перелік серій
1. Глава 1
2. Глава 2
3. Глава 3
4. Глава 4
5. Глава 5
6. Глава 6
7. Глава 7
8. Глава 8
Якість:
Відео:
кодек: H.265 (HEVC)
розмір кадру: 1920 x 1080
бітрейт: 1 440 кб/с
бітова глибина: 8 біт
Увага! Перед завантаженням переконайтесь, що ваш пристрій відтворення (та/або ПЗ) підтримують H.265 (HEVC)

Аудіо:
мова: українська
переклад: багатоголосий закадровий
кодек: 5.1
бітрейт: 640 кб/с

Озвучено студією "НеЗупиняйПродакшн"



Info
General
Unique ID : 55966302227630818212274119208956700103 (0x2A1AB7BD6503899A51EDD24F4409A5C7)
Complete name : C:\Legion (Season 1) 1080p H.265\Legion S01E04 1080p H.265 [UKR] .
Format :
Format version : Version 4 / Version 2
File size : 822 MiB
Duration : 54 min 48 s
Overall bit rate : 2 097 kb/s
Encoded date : UTC 2018-04-28 22:30:09
Writing application : v22.0.0 ('At The End Of The World') 64-bit
Writing library : libebml v1.3.5 + v1.4.8

Video
ID : 1
Format : HEVC
Format/Info : High Efficiency Video Coding
Format profile : [email protected]@Main
Codec ID : V_MPEGH/ISO/HEVC
Duration : 54 min 48 s
Bit rate : 1 455 kb/s
Width : 1 920 pixels
Height : 1 080 pixels
Display aspect ratio : 16:9
Frame rate mode : Constant
Frame rate : 23.976 (24000/1001) FPS
Color space : YUV
Chroma subsampling : 4:2:0
Bit depth : 8 bits
Bits/(Pixel*Frame) : 0.029
Stream size : 570 MiB (69%)
Default : Yes
Forced : No

Audio
ID : 2
Format : AC-3
Format/Info : Audio Coding 3
Codec ID : A_AC3
Duration : 54 min 48 s
Bit rate mode : Constant
Bit rate : 640 kb/s
Channel(s) : 6 channels
Channel positions : Front: L C R, Side: L R, LFE
Sampling rate : 48.0 kHz
Frame rate : 31.250 FPS (1536 SPF)
Bit depth : 16 bits
Compression mode : Lossy
Stream size : 251 MiB (31%)
Language : Ukrainian
Service kind : Complete Main
Default : Yes
Forced : No

Menu
00:00:00.000 : en:00:00:00.000
00:03:38.093 : en:00:03:38.093
00:11:56.424 : en:00:11:56.424
00:17:02.521 : en:00:17:02.521
00:20:23.722 : en:00:20:23.722
00:23:58.812 : en:00:23:58.812
00:31:41.650 : en:00:31:41.650
00:38:20.465 : en:00:38:20.465
00:41:50.633 : en:00:41:50.633
00:46:27.952 : en:00:46:27.952
00:49:29.466 : en:00:49:29.466
00:53:45.514 : en:00:53:45.514
Скріншоти



Джерело:
Особиста оцінка: 8 - мені сподобалося


Авторський реліз (завантажувати можна без реєстрації)
 Трекер:    Зареєстрований   

Завантажити / скачати серіал українською



відео для новачків



 Зареєстрований:   2018-05-24 16:16
 Розмір:   6.01 GB 
 Оцінка серіалу:   9/10 (Голосів: 3)
   
igor911 
Модератор відео


З нами з: 18.01.08
Востаннє: 01.12.20
Повідомлень: 15083

2018-04-29 08:08  
ukr_anonymous написано:

треба замінити на та додати звіт медіаінфо.

Ваш часовий пояс: GMT + 2 Години

Нова тема   Відповісти