Far Cry 5: За брамою Едему / Far Cry 5: Inside Eden's Gate (2018) 1080p Ukr/Eng

Нові коментарі

Нова тема   Відповісти
Автор Повідомлення
BaibaKoTV 
Частий відвідувач


З нами з: 01.12.16
Востаннє: 31.08.19
Повідомлень: 28

2018-04-28 23:37  
Far Cry 5: За брамою Едему / Far Cry 5: Inside Eden's Gate (2018) 1080p Ukr/Eng

Альтернативний
Far Cry 5: За брамою Едему / Far Cry 5: Inside Eden's Gate (2018) 1080p Ukr/Eng


Жанр: трилер, бойовик, короткометражка, драма
Країна: США



Кінокомпанія: Ubisoft, Asylum Entertainment
Режисер: Баррі Батлз
Актори: Ґреґ Бірк, Кайл Ґаллнер, Алексіс Сант'яґо, Ерін Манкер, Джаррет Ворлі та інші.

Сюжет:
Група войовниче налаштованих релігійних фанатиків захопили владу в окрузі Гоуп, що на Монтанщині. Молоді влоґери вирушають на розвідку вглиб території, що підвладна секті, аби викрити їхні таємні плани і врятувати сестру одного із глядачів популярного каналу на YouTube. Однак весела мандрівка обернулася кошмаром.


Тривалість: 30:53
Якість: 1080p
Відео:
кодек:
розмір кадру: 1920 x 816
бітрейт: 5156 кб/с

Аудіо # 1:
мова: українська
переклад: багатоголосий закадровий | BaibaKoTV
кодек: 5.1
бітрейт: 640 кб/с

Аудіо # 2:
мова: англійська
переклад: оригінал
кодек: 5.1
бітрейт: 640 кб/с
Info
Format :
Format version : Version 4 / Version 2
File size : 1.39 GiB
Duration : 30 min 53 s
Overall bit rate mode : Variable
Overall bit rate : 6 438 kb/s
Encoded date : UTC 2018-04-24 17:54:27
Writing application : v20.0.0 ('I Am The Sun') 64-bit
Writing library : libebml v1.3.5 + v1.4.8

Video
ID : 1
Format : AVC
Format/Info : Advanced Video Codec
Format profile : [email protected]
Format settings : CABAC / 4 Ref Frames
Format settings, CABAC : Yes
Format settings, RefFrames : 4 frames
Codec ID : V_MPEG4/ISO/AVC
Duration : 30 min 53 s
Bit rate mode : Variable
Bit rate : 5 156 kb/s
Maximum bit rate : 15.0 Mb/s
Width : 1 920 pixels
Height : 816 pixels
Display aspect ratio : 2.35:1
Frame rate mode : Constant
Frame rate : 23.976 (24000/1001) FPS
Color space : YUV
Chroma subsampling : 4:2:0
Bit depth : 8 bits
Scan type : Progressive
Bits/(Pixel*Frame) : 0.137
Stream size : 1.11 GiB (80%)
Language : English
Default : Yes
Forced : No
Color range : Limited
Color primaries : BT.709
Transfer characteristics : BT.709
Matrix coefficients : BT.709

Audio #1
ID : 2
Format : AC-3
Format/Info : Audio Coding 3
Codec ID : A_AC3
Duration : 30 min 53 s
Bit rate mode : Constant
Bit rate : 640 kb/s
Channel(s) : 6 channels
Channel positions : Front: L C R, Side: L R, LFE
Sampling rate : 48.0 kHz
Frame rate : 31.250 FPS (1536 SPF)
Bit depth : 16 bits
Compression mode : Lossy
Stream size : 141 MiB (10%)
Language : Ukrainian
Service kind : Complete Main
Default : Yes
Forced : No

Audio #2
ID : 3
Format : E-AC-3
Format/Info : Enhanced Audio Coding 3
Codec ID : A_EAC3
Duration : 30 min 53 s
Bit rate mode : Constant
Bit rate : 640 kb/s
Channel(s) : 6 channels
Channel positions : Front: L C R, Side: L R, LFE
Sampling rate : 48.0 kHz
Frame rate : 187.500 FPS (256 SPF)
Compression mode : Lossy
Stream size : 141 MiB (10%)
Language : English
Service kind : Complete Main
Default : No
Forced : No
Скріншоти


Авторський реліз (завантажувати можна без реєстрації)
 Трекер:    Зареєстрований   

Завантажити / скачати фільм українською



відео для новачків



 Зареєстрований:   2018-04-28 23:58
 Розмір:   1.39 GB 
 Оцінка фільму:   10/10 (Голосів: 10)
   
alienware 
Свій


З нами з: 21.12.09
Востаннє: 21.09.19
Повідомлень: 74

2018-04-29 07:50  
Клас, дякую. От би ще гру локалізували, було б супер!
Anonymous... 
Свій


З нами з: 11.01.18
Востаннє: 12.09.19
Повідомлень: 146

2018-04-29 09:26  
А що там з "Бібліотекарями"?
respect14 
VIP


З нами з: 26.01.11
Востаннє: 20.09.19
Повідомлень: 573

2018-04-29 23:39  
"Монтанщина" Happy)
Neadekvat87 
Частий відвідувач


З нами з: 09.09.17
Востаннє: 21.09.19
Повідомлень: 41

2018-05-08 10:05  
IMDb 5,3(КАРЛ!!!) для Asylum Entertainment , мабуть, рекорд Cry (1)
Dark Invader 
Модератор відео


З нами з: 06.01.11
Востаннє: 21.09.19
Повідомлень: 2732

2018-05-08 17:14  
Anonymous... написано:
А що там з "Бібліотекарями"?

Цього тижня буде 4-й сезон на "Новому каналі".

Ваш часовий пояс: GMT + 2 Години

Нова тема   Відповісти