Формула 1. Сезон 2018. Етап 4. Гран-Прі Азербайджану. Кваліфікація (28.04.2018) 720p Ukr/Eng

Нові коментарі

Нова тема   Відповісти
Останній раз роздавалося KO4EBHUK (2020-10-17)
Автор Повідомлення
sergiyko.5 
VIP


З нами з: 25.02.16
Востаннє: 24.10.20
Повідомлень: 3614

2018-04-28 21:27  
Формула 1. Сезон 2018. Етап 4. Гран-Прі Азербайджану. Кваліфікація (28.04.2018) 720p Ukr/Eng


Формула 1. Сезон 2018. Етап 4. Гран-Прі Азербайджану. Кваліфікація (28.04.2018) 720p Ukr/Eng

Жанр: Перегони Формула 1
Країна: Азербайджан
Телеканал: Перший автомобільний (звук), Channel 4 (відео)
Коментатор: Максим Подзігун

Опис:
Кваліфікація четвертого сезону Гран-Прі Азербайджану 2018 року відбулась 28 квітня о 16:00 годині за київським часом.


Тривалість: 01:06:21
Якість:

Відео: кодек: розмір кадру: 1280 х 720 бітрейт: 3000 кб/с
Аудіо: мова: українська кодек: MP2 2.0 бітрейт: 192 кб/с
Аудіо: мова: англійська кодек: 2.0 бітрейт: 384 кб/с

Дод. інформація: реклама вирізана.
Про файл:
General
Unique ID : 325737338734504177684777599673772147999 (0xF50EBABE5FC83BF950A12D736076051F)
Complete name : D:\Torrents\SPORT\Formula 1\F1.2018.Qualifying\F1.2018.04.Azerbaijan.Qualifying.720p..Ukr.Eng.
Format :
Format version : Version 4 / Version 2
File size : 1.72 GiB
Duration : 1 h 6 min
Overall bit rate : 3 707 kb/s
Encoded date : UTC 2018-04-28 18:23:20
Writing application : v22.0.0 ('At The End Of The World') 64-bit
Writing library : libebml v1.3.5 + v1.4.8

Video
ID : 1
Format : AVC
Format/Info : Advanced Video Codec
Format profile : [email protected]
Format settings, CABAC : Yes
Format settings, ReFrames : 5 frames
Codec ID : V_MPEG4/ISO/AVC
Duration : 1 h 6 min
Bit rate : 3 128 kb/s
Width : 1 280 pixels
Height : 720 pixels
Display aspect ratio : 16:9
Frame rate mode : Constant
Frame rate : 50.000 FPS
Color space : YUV
Chroma subsampling : 4:2:0
Bit depth : 8 bits
Scan type : Progressive
Bits/(Pixel*Frame) : 0.068
Stream size : 1.45 GiB (84%)
Title : Channel 4
Writing library : core 155 r2901 7d0ff22
Encoding settings : cabac=1 / ref=5 / deblock=1:0:0 / analyse=0x3:0x113 / me=hex / subme=8 / psy=1 / psy_rd=1.00:0.00 / mixed_ref=1 / me_range=16 / chroma_me=1 / trellis=2 / 8x8dct=1 / cqm=0 / deadzone=21,11 / fast_pskip=1 / chroma_qp_offset=-2 / threads=12 / lookahead_threads=2 / sliced_threads=0 / nr=0 / decimate=1 / interlaced=0 / bluray_compat=0 / constrained_intra=0 / bframes=3 / b_pyramid=2 / b_adapt=1 / b_bias=0 / direct=3 / weightb=1 / open_gop=0 / weightp=2 / keyint=250 / keyint_min=25 / scenecut=40 / intra_refresh=0 / rc_lookahead=50 / rc=crf / mbtree=1 / crf=23.0 / qcomp=0.60 / qpmin=0 / qpmax=69 / qpstep=4 / ip_ratio=1.40 / aq=1:1.00
Language : English
Default : Yes
Forced : No
Color range : Limited
Matrix coefficients : BT.709

Audio #1
ID : 2
Format : MPEG Audio
Format version : Version 1
Format profile : Layer 2
Codec ID : A_MPEG/L2
Codec ID/Hint : MP2
Duration : 1 h 6 min
Bit rate mode : Constant
Bit rate : 192 kb/s
Channel(s) : 2 channels
Sampling rate : 48.0 kHz
Frame rate : 41.667 FPS (1152 spf)
Compression mode : Lossy
Stream size : 91.1 MiB (5%)
Title : 1 Авто | Максим Подзігун
Language : Ukrainian
Default : Yes
Forced : Yes

Audio #2
ID : 3
Format : AC-3
Format/Info : Audio Coding 3
Mode extension : CM (complete main)
Format settings, Endianness : Big
Codec ID : A_AC3
Duration : 1 h 6 min
Bit rate mode : Constant
Bit rate : 384 kb/s
Channel(s) : 2 channels
Channel positions : Front: L R
Sampling rate : 48.0 kHz
Frame rate : 31.250 FPS (1536 spf)
Bit depth : 16 bits
Compression mode : Lossy
Stream size : 182 MiB (10%)
Title : Original
Language : English
Default : No
Forced : No
Скріншоти:


Автор запису/зведення: sergiyko


 Трекер:    Зареєстрований   

Завантажити / скачати торрент



відео для новачків



 Зареєстрований:   2018-04-28 21:27
 Розмір:   1.72 GB 
 Оцінка:   10/10 (Голосів: 12)
   
legioneRRR 
Частий відвідувач


З нами з: 02.01.15
Востаннє: 24.10.20
Повідомлень: 33

2018-04-28 21:31  
Дякую за старання!
yurchyks 
Новенький


З нами з: 04.11.10
Востаннє: 16.10.20
Повідомлень: 16

2018-04-28 22:14  
Дуже дякую!
apylypiv 
Новенький


З нами з: 19.12.15
Востаннє: 08.09.18
Повідомлень: 1

2018-04-28 22:22  
Дякую!
VicCob 
Свій


З нами з: 16.06.10
Востаннє: 24.10.20
Повідомлень: 57

2018-04-29 00:08  
Прикро, що Full HD 1080 нема.
Ваш часовий пояс: GMT + 2 Години

Нова тема   Відповісти