Кролик Петрик / Peter Rabbit (2018) 720p Ukr/Eng | Sub Ukr/Eng

Нові коментарі

Нова тема   Відповісти
Автор Повідомлення
staf777 
Відео Гуртом - підтримка та поширення
Відео Гуртом - підтримка та поширення


З нами з: 16.11.16
Востаннє: 22.11.19
Повідомлень: 3034

2018-04-26 15:17  
Кролик Петрик / Peter Rabbit (2018) 720p Ukr/Eng | Sub Ukr/Eng

Кролик Петрик / Peter Rabbit (2018) 720p Ukr/Eng | Sub Ukr/Eng


Жанр: анімація, комедія, сімейний
Країна: Австралія, США



Кінокомпанія: Sony / Columbia, Animal Logic, Sony Pictures Animation
Режисер: Вілл Ґлак
Актори: Джеймс Корден, Донал Ґлісон, Роуз Бірн, Сем Нілл, Марґо Роббі, Елізабет Дебікі, Дейзі Рідлі, Колін Муді, Файсаль Баззі, Девід Венем та інші

Сюжет:

Світовий бестселер про дивовижні пригоди кролика Петрика та його друзів оживе! Заклятий ворог кроликів містер МакҐрегор не бажає ділитися врожаєм з лісовими мешканцями, а навпаки мріє про пироги з кролятиною. І тоді пухнасті вирішують дати відсіч безжальному фермерові…


Тривалість: 01:34:42
Якість: 720p
Відео:
кодек:
розмір кадру: 1280x536
бітрейт: 3976 кб/с

Аудіо # 1:
мова: українська
переклад: професійний дубльований | студія LeDoyen
кодек: 5.1
бітрейт: 640 кб/с

Аудіо # 2:
мова: англійська
переклад: оригінал
кодек: 5.1
бітрейт: 1509 кб/с

Субтитри (Full) # 1:
мова: українська
тип: програмні (м'які)
формат: *.srt

Субтитри (Full) # 2:
мова: англійська
тип: програмні (м'які)
формат: *.srt
Info
General
Unique ID : 215449842561252070764816904562477716352 (0xA216215D524DDC619ED18574E8115380)
Complete name : H:\» HD українською » Фільми в HD\Комедія\Peter Rabbit (2018) 720p [UKR_ENG] [Hurtom].
Format :
Format version : Version 4 / Version 2
File size : 4.05 GiB
Duration : 1 h 34 min
Overall bit rate : 6 128 kb/s
Movie name : Peter Rabbit (2018) 720p [UKR_ENG] [Hurtom]
Encoded date : UTC 2018-05-04 14:33:26
Writing application : v9.8.0 ('Kuglblids') 64bit
Writing library : libebml v1.3.4 + v1.4.5
Cover : Yes
Attachments : cover.jpg

Video
ID : 1
Format : AVC
Format/Info : Advanced Video Codec
Format profile : [email protected]
Format settings : CABAC / 12 Ref Frames
Format settings, CABAC : Yes
Format settings, ReFrames : 12 frames
Codec ID : V_MPEG4/ISO/AVC
Duration : 1 h 34 min
Bit rate : 3 976 kb/s
Width : 1 280 pixels
Height : 536 pixels
Display aspect ratio : 2.40:1
Frame rate mode : Constant
Frame rate : 23.976 (24000/1001) FPS
Color space : YUV
Chroma subsampling : 4:2:0
Bit depth : 8 bits
Scan type : Progressive
Bits/(Pixel*Frame) : 0.242
Stream size : 2.63 GiB (65%)
Writing library : core 142 r2431+42 c69a006 tMod [[email protected]:2:0 X86_64]
Encoding settings : cabac=1 / ref=12 / deblock=1:-3:-3 / analyse=0x3:0x113 / me=umh / subme=10 / psy=1 / fade_compensate=0.00 / psy_rd=1.00:0.05 / mixed_ref=1 / me_range=32 / chroma_me=1 / trellis=2 / 8x8dct=1 / cqm=0 / deadzone=21,11 / fast_pskip=0 / chroma_qp_offset=-2 / threads=48 / lookahead_threads=4 / sliced_threads=0 / nr=0 / decimate=1 / interlaced=0 / bluray_compat=0 / constrained_intra=0 / fgo=0 / bframes=8 / b_pyramid=2 / b_adapt=2 / b_bias=0 / direct=3 / weightb=1 / open_gop=0 / weightp=2 / keyint=250 / keyint_min=23 / scenecut=40 / intra_refresh=0 / rc=crf / mbtree=0 / crf=17.0000 / qcomp=0.60 / qpmin=0:0:0 / qpmax=69:69:69 / qpstep=4 / ip_ratio=1.40 / pb_ratio=1.30 / aq=3:0.80 / aq-sensitivity=10.00 / aq-factor=1.00:1.00:1.00 / aq2=0 / aq3=0
Language : English
Default : Yes
Forced : No
Color range : Limited
Matrix coefficients : BT.709

Audio #1
ID : 2
Format : AC-3
Format/Info : Audio Coding 3
Codec ID : A_AC3
Duration : 1 h 34 min
Bit rate mode : Constant
Bit rate : 640 kb/s
Channel(s) : 6 channels
Channel positions : Front: L C R, Side: L R, LFE
Sampling rate : 48.0 kHz
Frame rate : 31.250 FPS (1536 SPF)
Bit depth : 16 bits
Compression mode : Lossy
Stream size : 434 MiB (10%)
Title : [UA-DUB]
Language : Ukrainian
Service kind : Complete Main
Default : Yes
Forced : Yes

Audio #2
ID : 3
Format :
Format/Info : Digital Theater Systems
Codec ID : A_DTS
Duration : 1 h 34 min
Bit rate mode : Constant
Bit rate : 1 509 kb/s
Channel(s) : 6 channels
Channel positions : Front: L C R, Side: L R, LFE
Sampling rate : 48.0 kHz
Frame rate : 93.750 FPS (512 SPF)
Bit depth : 16 bits
Compression mode : Lossy
Stream size : 1 022 MiB (25%)
Title : Original
Language : English
Default : No
Forced : No

Text #1
ID : 4
Format : UTF-8
Codec ID : S_TEXT/UTF8
Codec ID/Info : UTF-8 Plain Text
Duration : 1 h 33 min
Bit rate : 101 b/s
Count of elements : 1542
Stream size : 70.0 KiB (0%)
Title : Full
Language : Ukrainian
Default : No
Forced : No

Text #2
ID : 5
Format : UTF-8
Codec ID : S_TEXT/UTF8
Codec ID/Info : UTF-8 Plain Text
Duration : 1 h 33 min
Bit rate : 71 b/s
Count of elements : 1726
Stream size : 49.5 KiB (0%)
Title : Full
Language : English
Default : No
Forced : No

Menu
00:00:00.000 : en:00:00:00.000
00:04:04.786 : en:00:04:04.786
00:08:26.297 : en:00:08:26.297
00:15:11.702 : en:00:15:11.702
00:21:00.634 : en:00:21:00.634
00:25:43.584 : en:00:25:43.584
00:30:50.265 : en:00:30:50.265
00:38:00.862 : en:00:38:00.862
00:44:37.341 : en:00:44:37.341
00:50:07.671 : en:00:50:07.671
00:56:21.295 : en:00:56:21.295
01:01:07.581 : en:01:01:07.581
01:07:02.560 : en:01:07:02.560
01:10:30.810 : en:01:10:30.810
01:14:35.137 : en:01:14:35.137
01:21:51.990 : en:01:21:51.990
Скріншоти



Джерело: &
Особиста оцінка: 0 - не дивився

Подяка Electroz'у за розпізнавання субтитрів.


 Трекер:    Зареєстрований   

Завантажити / скачати фільм українською



відео для новачків



 Зареєстрований:   2018-05-04 16:41
 Розмір:   4.05 GB 
 Оцінка фільму:   9.2/10 (Голосів: 91)
   
Інші релізи
Obey 
Свій


З нами з: 12.06.11
Востаннє: 22.11.19
Повідомлень: 91

2018-04-26 15:29  
Постер прикріплений до файлу?
staf777 
Відео Гуртом - підтримка та поширення
Відео Гуртом - підтримка та поширення


З нами з: 16.11.16
Востаннє: 22.11.19
Повідомлень: 3034

2018-04-26 15:55  
Obey
Так

Wowatorrent 
Поважний учасник


З нами з: 23.03.16
Востаннє: 22.11.19
Повідомлень: 167

2018-04-26 16:03  
Obey
Info
Цитата:
Cover : Yes
Attachments : cover.jpg

KarpatyS 
Свій


З нами з: 08.01.12
Востаннє: 21.11.19
Повідомлень: 56

2018-04-26 23:34  
фільм класний! В мене діти в кіно просто не могли відірватись. Малий ходив двічі)
Walkerrovno 
Новенький


З нами з: 23.03.13
Востаннє: 02.11.19
Повідомлень: 11

2018-05-01 18:58  
данке за роздачу!!!!!!!!
madagaskar1 
VIP


З нами з: 08.05.14
Востаннє: 22.11.19
Повідомлень: 787

2018-05-02 07:32  
розчарований така нуднота що капець, пару смішних моментів, як завжди у трейлері все найкраще показали 4/10 - і то за графіку кролів й за український дубляж. Confused

Додано через 39 секунд:

таки на дітей фільм-анімація розрахований

staf777 
Відео Гуртом - підтримка та поширення
Відео Гуртом - підтримка та поширення


З нами з: 16.11.16
Востаннє: 22.11.19
Повідомлень: 3034

2018-05-04 17:01  
Змінив звук на 
zoomymba2012 
VIP


З нами з: 08.01.15
Востаннє: 21.11.19
Повідомлень: 647

2018-05-04 17:46  
staf777
А інфи про дубляж немає?

igor911 
Модератор відео


З нами з: 18.01.08
Востаннє: 22.11.19
Повідомлень: 13666

2018-05-04 17:57  
zoomymba2012, повної інфи нажаль немає, часткова є https://toloka.to/t89577 (+ постери з акторами дубляжу)

Додано через 5 хвилин 56 секунд:

*повна інформація швидше за все є у відеоряді після титрів на тюнсі.

Maters 
Відео Гуртом - підтримка та поширення
Відео Гуртом - підтримка та поширення


З нами з: 27.03.12
Востаннє: 22.11.19
Повідомлень: 1838

2018-05-09 11:17  
madagaskar1 написано:
і то за графіку кролів й за український дубляж

+

123999 
Новенький


З нами з: 23.03.18
Востаннє: 23.07.18
Повідомлень: 1

2018-05-18 13:58  
А де Українська????
igor911 
Модератор відео


З нами з: 18.01.08
Востаннє: 22.11.19
Повідомлень: 13666

2018-05-18 14:48  
123999, якщо програвач за замовчанням грає англійську доріжку - перемкни на українську вручну.
Ваш часовий пояс: GMT + 2 Години

Нова тема   Відповісти