Гран Торіно / Ґран Торіно / Gran Torino (2008) 1080p H.265 2xUkr/Eng | Sub Ukr/2xEng

Нові коментарі

Нова тема   Відповісти
Автор Повідомлення
ukr_anonymous 
Попереджень: 1
Попереджень: 1 


З нами з: 16.04.18
Востаннє: 17.11.19
Повідомлень: 234

2018-04-25 18:30  
Гран Торіно / Ґран Торіно / Gran Torino (2008) 1080p H.265 2xUkr/Eng | Sub Ukr/2xEng

Гран Торіно / Ґран Торіно / Gran Torino (2008) 1080p H.265 2xUkr/Eng | Sub Ukr/2xEng

Жанр: драма
Країна: США, Німеччина



Кінокомпанія: Matten Productions, Double Nickel Entertainment, Gerber Pictures
Режисер: Клінт Іствуд / Clint Eastwood
Актори: Клінт Іствуд / Clint Eastwood, Бі Ванґ / Bee Vang, Крістофер Керлі / Christopher Carley, Ені Гер / Ahney Her, Браян Гейлі / Brian Haley, Джеральдін Г'юз / Geraldine Hughes, Дріма Вокер / Dreama Walker, Брайан Гоу / Brian Howe, Джон Керролл Лінч / John Carroll Lynch, Вільям Гілл / William Hill

Сюжет:
Волт Ковальські - ветеран Корейської війни, самотня стара людина з твердими принципами, у якої після смерті дружини не залишилось нічого в цьому світі, окрім будинку, гвинтівки, з якою Волт пройшов усю війну, та автомобіля. В той же час довкола оселі Волта все більше і більше будинків купуються азіатами, які втікають від комуністичної влади, і квартал починає перетворюватись на такий собі "чайнатаун" - з молодіжними бандами, наркотиками, грабіжництвом та ґвалтуваннями. Якось увечері він ловить сина своїх нових сусідів на місці злочину - він намагався викрасти у Волта основний скарб його життя: класичний седан Ford Gran Torino 1972-го року випуску. Звісно, це не робить почуття Волта до азіатів більш теплими. Але дуже швидко з'ясовується, що хлопця просто примусила до злочину одна з місцевих банд, яка тепер переслідує його за небажання стати такими, як вони - і тоді Волт стає на його захист і намагається допомогти юному китайцю зайняти гідне місце в американському житті.


Тривалість: 01:56:40
Якість:
Відео:
кодек: H.265 (HEVC)
розмір кадру: 1920 х 800
бітрейт: 3 908 кб/с
бітова глибина: 10 біт
Увага! Перед завантаженням переконайтесь, що ваш пристрій відтворення (та/або ПЗ) підтримують H.265 (HEVC)

Аудіо # 1:
мова: українська
переклад: багатоголосий закадровий | Студія Омікрон
кодек: 5.1
бітрейт: 640 кб/с

Аудіо # 2:
мова: українська
переклад: багатоголосий закадровий
кодек: 2.0
бітрейт: 192 кб/с

Аудіо # 3:
мова: англійська
переклад: оригінал
кодек: 5.1
бітрейт: 640 кб/с

Субтитри # 1:
мова: українська
тип: програмні (м'які)
формат: *.srt

Субтитри # 2-3:
мова: англійська (Forced, Full)
тип: програмні (м'які)
формат: *.srt
Info
General
Unique ID : 20659355111682226608841437910968894334 (0xF8AD8D931E7D3E2AD8BF5FAC099037E)
Complete name : F:\Video\Gran Torino (2008) 1080p H.265 [UKR_ENG].
Format :
Format version : Version 4 / Version 2
File size : 4.38 GiB
Duration : 1 h 56 min
Overall bit rate : 5 379 kb/s
Movie name : Gran Torino
Encoded date : UTC 2018-04-25 16:17:25
Writing application : v22.0.0 ('At The End Of The World') 64-bit
Writing library : libebml v1.3.5 + v1.4.8
Cover : Yes
Attachments : Cover.jpg

Video
ID : 1
Format : HEVC
Format/Info : High Efficiency Video Coding
Format profile : Main [email protected]@High
Codec ID : V_MPEGH/ISO/HEVC
Duration : 1 h 56 min
Bit rate : 3 908 kb/s
Width : 1 920 pixels
Height : 800 pixels
Display aspect ratio : 2.40:1
Frame rate mode : Constant
Frame rate : 23.976 (24000/1001) FPS
Color space : YUV
Chroma subsampling : 4:2:0
Bit depth : 10 bits
Bits/(Pixel*Frame) : 0.106
Stream size : 3.18 GiB (73%)
Writing library : x265 2.7+336-07defe235cde:[Windows][clang 7.0.0][64 bit] 10bit
Encoding settings : cpuid=1049583 / frame-threads=5 / numa-pools=4 / wpp / no-pmode / no-pme / no-psnr / no-ssim / log-level=3 / input-csp=1 / input-res=1920x800 / interlace=0 / total-frames=0 / level-idc=41 / high-tier=1 / uhd-bd=0 / ref=3 / allow-non-conformance / no-repeat-headers / annexb / no-aud / no-hrd / info / hash=0 / no-temporal-layers / open-gop / min-keyint=24 / keyint=240 / gop-lookahead=0 / bframes=4 / b-adapt=2 / b-pyramid / bframe-bias=0 / rc-lookahead=20 / lookahead-slices=5 / scenecut=40 / radl=0 / no-intra-refresh / ctu=64 / min-cu-size=8 / no-rect / no-amp / max-tu-size=32 / tu-inter-depth=1 / tu-intra-depth=1 / limit-tu=0 / rdoq-level=0 / dynamic-rd=0.00 / no-ssim-rd / signhide / no-tskip / nr-intra=0 / nr-inter=0 / no-constrained-intra / strong-intra-smoothing / max-merge=2 / limit-refs=3 / no-limit-modes / me=1 / subme=7 / merange=57 / temporal-mvp / weightp / no-weightb / no-analyze-src-pics / deblock=-3:-3 / sao / no-sao-non-deblock / rd=3 / no-early-skip / rskip / no-fast-intra / no-tskip-fast / no-cu-lossless / no-b-intra / no-splitrd-skip / rdpenalty=0 / psy-rd=2.00 / psy-rdoq=0.00 / no-rd-refine / no-lossless / cbqpoffs=0 / crqpoffs=0 / rc=crf / crf=18.0 / qcomp=0.60 / qpstep=4 / stats-write=0 / stats-read=0 / vbv-maxrate=50000 / vbv-bufsize=50000 / vbv-init=0.9 / crf-max=0.0 / crf-min=0.0 / ipratio=1.40 / pbratio=1.30 / aq-mode=1 / aq-strength=1.00 / cutree / zone-count=0 / no-strict-cbr / qg-size=32 / no-rc-grain / qpmax=69 / qpmin=0 / no-const-vbv / sar=1 / overscan=0 / videoformat=5 / range=0 / colorprim=1 / transfer=1 / colormatrix=1 / chromaloc=0 / display-window=0 / max-cll=0,0 / min-luma=0 / max-luma=1023 / log2-max-poc-lsb=8 / vui-timing-info / vui-hrd-info / slices=1 / no-opt-qp-pps / no-opt-ref-list-length-pps / no-multi-pass-opt-rps / scenecut-bias=0.05 / no-opt-cu-delta-qp / no-aq-motion / no-hdr / no-hdr-opt / no-dhdr10-opt / no-idr-recovery-sei / analysis-reuse-level=5 / scale-factor=0 / refine-intra=0 / refine-inter=0 / refine-mv=0 / no-limit-sao / ctu-info=0 / no-lowpass-dct / refine-mv-type=0 / copy-pic=1 / max-ausize-factor=1.0 / no-dynamic-refine / no-single-sei
Language : English
Default : Yes
Forced : No
Color range : Limited
Color primaries : BT.709
Transfer characteristics : BT.709
Matrix coefficients : BT.709

Audio #1
ID : 2
Format : AC-3
Format/Info : Audio Coding 3
Codec ID : A_AC3
Duration : 1 h 56 min
Bit rate mode : Constant
Bit rate : 640 kb/s
Channel(s) : 6 channels
Channel positions : Front: L C R, Side: L R, LFE
Sampling rate : 48.0 kHz
Frame rate : 31.250 FPS (1536 SPF)
Bit depth : 16 bits
Compression mode : Lossy
Stream size : 534 MiB (12%)
Title : 5.1 @ 640 Kbps - багатоголосий закадровий | Студія Омікрон
Language : Ukrainian
Service kind : Complete Main
Default : Yes
Forced : No

Audio #2
ID : 3
Format : AC-3
Format/Info : Audio Coding 3
Codec ID : A_AC3
Duration : 1 h 56 min
Bit rate mode : Constant
Bit rate : 192 kb/s
Channel(s) : 2 channels
Channel positions : Front: L R
Sampling rate : 48.0 kHz
Frame rate : 31.250 FPS (1536 SPF)
Bit depth : 16 bits
Compression mode : Lossy
Stream size : 160 MiB (4%)
Title : 2.0 @ 192 Kbps - багатоголосий закадровий | ICTV
Language : Ukrainian
Service kind : Complete Main
Default : No
Forced : No

Audio #3
ID : 4
Format : AC-3
Format/Info : Audio Coding 3
Codec ID : A_AC3
Duration : 1 h 56 min
Bit rate mode : Constant
Bit rate : 640 kb/s
Channel(s) : 6 channels
Channel positions : Front: L C R, Side: L R, LFE
Sampling rate : 48.0 kHz
Frame rate : 31.250 FPS (1536 SPF)
Bit depth : 16 bits
Compression mode : Lossy
Stream size : 534 MiB (12%)
Title : 5.1 @ 640 Kbps
Language : English
Service kind : Complete Main
Default : No
Forced : No

Text #1
ID : 5
Format : UTF-8
Codec ID : S_TEXT/UTF8
Codec ID/Info : UTF-8 Plain Text
Duration : 1 h 50 min
Bit rate : 102 b/s
Count of elements : 1386
Stream size : 82.6 KiB (0%)
Language : Ukrainian
Default : No
Forced : No

Text #2
ID : 6
Format : UTF-8
Codec ID : S_TEXT/UTF8
Codec ID/Info : UTF-8 Plain Text
Duration : 1 h 37 min
Bit rate : 1 b/s
Count of elements : 27
Stream size : 1.04 KiB (0%)
Title : Forced
Language : English
Default : No
Forced : No

Text #3
ID : 7
Format : UTF-8
Codec ID : S_TEXT/UTF8
Codec ID/Info : UTF-8 Plain Text
Duration : 1 h 49 min
Bit rate : 70 b/s
Count of elements : 1422
Stream size : 56.5 KiB (0%)
Language : English
Default : No
Forced : No

Menu
00:00:00.000 : en:Chapter 01
00:03:54.150 : en:Chapter 02
00:08:45.316 : en:Chapter 03
00:13:14.084 : en:Chapter 04
00:18:08.212 : en:Chapter 05
00:20:56.755 : en:Chapter 06
00:24:20.709 : en:Chapter 07
00:28:49.018 : en:Chapter 08
00:31:41.608 : en:Chapter 09
00:36:17.758 : en:Chapter 10
00:40:13.702 : en:Chapter 11
00:43:46.206 : en:Chapter 12
00:48:44.004 : en:Chapter 13
00:53:55.857 : en:Chapter 14
00:57:04.379 : en:Chapter 15
01:01:05.620 : en:Chapter 16
01:04:21.482 : en:Chapter 17
01:10:42.947 : en:Chapter 18
01:16:27.749 : en:Chapter 19
01:20:04.716 : en:Chapter 20
01:22:55.095 : en:Chapter 21
01:26:14.043 : en:Chapter 22
01:29:15.266 : en:Chapter 23
01:33:29.979 : en:Chapter 24
01:36:31.744 : en:Chapter 25
01:38:41.206 : en:Chapter 26
01:43:45.385 : en:Chapter 27
01:46:09.112 : en:Chapter 28
01:51:04.366 : en:Chapter 29
Скріншоти



Джерело:
Особиста оцінка: 0 - не дивився


 Трекер:    Зареєстрований   

Завантажити / скачати фільм українською



відео для новачків



 Зареєстрований:   2018-04-25 18:30
 Розмір:   4.38 GB 
 Оцінка фільму:   9.4/10 (Голосів: 15)
   
Mongoose 
Свій


З нами з: 27.03.16
Востаннє: 16.11.19
Повідомлень: 142

2018-04-25 21:11  
Потужне кіно
Завантажу і гляну вкотре

Ваш часовий пояс: GMT + 2 Години

Нова тема   Відповісти