Дружина астронавта / The Astronaut's Wife (1999) 1080p Ukr/Eng | sub Eng

Нові коментарі

Нова тема   Відповісти
Останній раз роздавалося elektryk125 (2019-11-30)
Автор Повідомлення
boroznaya 
Попереджень: 1
Попереджень: 1 


З нами з: 02.11.12
Востаннє: 11.12.19
Повідомлень: 2943

2018-04-25 15:04  
Дружина астронавта / The Astronaut's Wife (1999) 1080p Ukr/Eng | sub Eng

Дружина астронавта / The Astronaut's Wife (1999) 1080p Ukr/Eng | sub Eng


«Він принесе з собою страх ...»


Жанр: драма, фантастика, трилер
Країна: США



Кінокомпанія: New Line Cinema, Mad Chance
Режисер: Ренд Равіч
Актори: Джонні Депп, Шарліз Терон, Джо Мортон, Клеа Дювалл, Донна Мерфі, Нік Кассаветіс, Саманта Еггар, Гері Граббс, Блер Браун, Том Нунен, Том О’Браян, Люсі Лін, Майкл Крайдер, Джейкоб Стейн, Тімоті Уїкер

Сюжет:
Перебуваючи у відкритому космосі, астронавт Спенсер Армакост на кілька хвилин втратив зв'язок із Землею. Але все обійшлося, і екіпажу вдалося повернутися назад. Спенсер і його дружина знову були разом. Але незабаром Джілліан починає підозрювати, що її чоловік став іншим. І якщо раніше вона турбувалася за його життя, то тепер стала боятися за своє. Вона опинилася наодинці з лякаючою невідомістю...


Тривалість: 01:49:09
Якість: 1080p
Відео:
кодек:
розмір кадру: 1920x1080
бітрейт: 12.5 Мб/с

Аудіо # 1: ,
мова: українська
переклад: багатоголосий закадровий
кодек: 5.1
бітрейт: 384 кб/с

Аудіо # 2:
мова: англійська
переклад: оригінал
кодек: 5.1
бітрейт: 1510 кб/с

Субтитри: [SDH]
мова: англійська
тип: програмні (м'які)
формат: *.srt
Info
D:\Фільми\Download\Дружина астронавта.
General
Unique ID : 74042912906194476411388370634804559427 (0x37B42574CE5C6CF11EE9D3C9A1C3FE43)
Complete name : D:\Готові релізи!\The Astronaut's Wife (1999) [Ukr, Eng, sub. Eng] 1080p [Hurtom].
Format :
Format version : Version 4 / Version 2
File size : 11.0 GiB
Duration : 1h 49mn
Overall bit rate : 14.4 Mbps
Encoded date : UTC 2018-04-25 10:57:24
Writing application : v20.0.0 ('I Am The Sun') 64-bit
Writing library : libebml v1.3.5 + v1.4.8
DURATION : 01:49:09.088000000
NUMBER_OF_FRAMES : 204659
NUMBER_OF_BYTES : 314356224
_STATISTICS_WRITING_APP : v20.0.0 ('I Am The Sun') 64-bit
_STATISTICS_WRITING_DATE_UTC : 2018-04-25 10:57:24
_STATISTICS_TAGS : BPS DURATION NUMBER_OF_FRAMES NUMBER_OF_BYTES

Video #1
ID : 1
Format : AVC
Format/Info : Advanced Video Codec
Format profile : [email protected]
Format settings, CABAC : Yes
Format settings, ReFrames : 4 frames
Codec ID : V_MPEG4/ISO/AVC
Duration : 1h 49mn
Bit rate : 12.5 Mbps
Width : 1 920 pixels
Height : 1 080 pixels
Display aspect ratio : 16:9
Frame rate : 23.976 fps
Color space : YUV
Chroma subsampling : 4:2:0
Bit depth : 8 bits
Scan type : Progressive
Bits/(Pixel*Frame) : 0.251
Stream size : 9.31 GiB (85%)
Title : Zhuk_Mikola
Writing library : core 125 r2200 999b753
Encoding settings : cabac=1 / ref=4 / deblock=1:-3:-3 / analyse=0x3:0x113 / me=umh / subme=11 / psy=1 / psy_rd=0.90:0.00 / mixed_ref=1 / me_range=48 / chroma_me=1 / trellis=2 / 8x8dct=1 / cqm=0 / deadzone=21,11 / fast_pskip=0 / chroma_qp_offset=-2 / threads=12 / lookahead_threads=2 / sliced_threads=0 / nr=0 / decimate=0 / interlaced=0 / bluray_compat=0 / constrained_intra=0 / bframes=8 / b_pyramid=2 / b_adapt=2 / b_bias=0 / direct=3 / weightb=1 / open_gop=0 / weightp=2 / keyint=240 / keyint_min=22 / scenecut=40 / intra_refresh=0 / rc_lookahead=40 / rc=2pass / mbtree=0 / bitrate=12501 / ratetol=1.0 / qcomp=0.60 / qpmin=0 / qpmax=69 / qpstep=4 / cplxblur=20.0 / qblur=0.5 / vbv_maxrate=40000 / vbv_bufsize=30000 / nal_hrd=none / ip_ratio=1.40 / pb_ratio=1.30 / aq=1:0.80
Language : English
Default : Yes
Forced : No
DURATION : 01:49:08.667000000
NUMBER_OF_FRAMES : 157011
NUMBER_OF_BYTES : 10225050718
_STATISTICS_WRITING_APP : v20.0.0 ('I Am The Sun') 64-bit
_STATISTICS_WRITING_DATE_UTC : 2018-04-25 10:57:24
_STATISTICS_TAGS : BPS DURATION NUMBER_OF_FRAMES NUMBER_OF_BYTES
Color primaries : BT.709-5, BT.1361, IEC 61966-2-4, SMPTE RP177
Transfer characteristics : BT.709-5, BT.1361
Matrix coefficients : BT.709-5, BT.1361, IEC 61966-2-4 709, SMPTE RP177

Audio #2
ID : 2
Format : AC-3
Format/Info : Audio Coding 3
Mode extension : CM (complete main)
Codec ID : A_AC3
Duration : 1h 49mn
Bit rate mode : Constant
Bit rate : 384 Kbps
Channel(s) : 6 channels
Channel positions : Front: L C R, Side: L R, LFE
Sampling rate : 48.0 KHz
Bit depth : 16 bits
Compression mode : Lossy
Stream size : 300 MiB (3%)
Title : Багатоголосий закадровий, К1, Інтер
Language : Ukrainian
Default : Yes
Forced : No

Audio #3
ID : 3
Format :
Format/Info : Digital Theater Systems
Codec ID : A_DTS
Duration : 1h 49mn
Bit rate mode : Constant
Bit rate : 1 510 Kbps
Channel(s) : 6 channels
Channel positions : Front: L C R, Side: L R, LFE
Sampling rate : 48.0 KHz
Bit depth : 24 bits
Compression mode : Lossy
Stream size : 1.15 GiB (10%)
Language : English
Default : No
Forced : No

Text #4
ID : 4
Format : UTF-8
Codec ID : S_TEXT/UTF8
Codec ID/Info : UTF-8 Plain Text
Title : SDH
Language : English
Default : No
Forced : No
Скріншоти


Дякую xslim за надання та запис звуку!

Джерело: &
Особиста оцінка: 8 - мені сподобалося


Срібний реліз (на рейтинг впливає 50% завантаженого)
 Трекер:    Зареєстрований   

Завантажити / скачати фільм українською



відео для новачків



 Зареєстрований:   2018-05-06 08:01
 Розмір:   10.97 GB 
 Оцінка фільму:   7.9/10 (Голосів: 7)
   
Інші релізи
bot 
робот


З нами з: 30.09.07
Востаннє: 26.05.05
Повідомлень: 22623

2018-04-25 15:15  
Тему перенесено з Фільми в HD до форуму Анонси релізів


boroznaya

Lemond 
Новенький


З нами з: 19.01.09
Востаннє: 27.08.19
Повідомлень: 12

2018-04-25 17:31  
Класний фільм. В ньому я побачив аналогію гібридної війни проти України з боку РФ. Цей фільм присутній в моєму списку улюбленого кіно, тож чекаю на роздачу
bot 
робот


З нами з: 30.09.07
Востаннє: 26.05.05
Повідомлень: 22623

2018-04-28 09:31  
Тему перенесено з Анонси релізів до форуму Фінальний смітник


boroznaya

bot 
робот


З нами з: 30.09.07
Востаннє: 26.05.05
Повідомлень: 22623

2018-04-30 21:27  
Тему перенесено з Фінальний смітник до форуму Фільми в HD


igor911

boroznaya 
Попереджень: 1
Попереджень: 1 


З нами з: 02.11.12
Востаннє: 11.12.19
Повідомлень: 2943

2018-05-06 09:03  
Фільм "Дружина астронавта" на роздачі!
Всім приємного перегляду!

Ваш часовий пояс: GMT + 2 Години

Нова тема   Відповісти