Знайшов в неті серіал "Stargate SG-1" в 720p із логотипом каналу? Потрібен він на гуртом?

Нові коментарі

Нова тема   Відповісти
Потрібен він на гуртом?

Так!
100%
 100%  [ 3 ]
Ні!
0%
 0%  [ 0 ]
Мені байдуже!
0%
 0%  [ 0 ]
Проголосувало користувачів: 3
Всього віддано голосів: 3
Голосування завершено

Автор Повідомлення
Pegass 
VIP


З нами з: 17.12.09
Востаннє: 26.05.18
Повідомлень: 767

2018-04-25 01:26  
Знайшов в неті серіал "Stargate SG-1" в 720p із логотипом каналу? Потрібен він на гуртом?




На даний час є 10 серій першого сезону в такій якості.
- мінус в них той, що в кінці кожної серії відсутні титри.
- і логотип каналу та логотип із віковим обмеженням.

Декілька серій для оцінки оригіналом закинув сюди:
https://fex.net/665282302773

І хто хоче взятися за створення релізу, бо я непланую робити його. Відео відам тому, хто зробить реліз.
s01e02
General
Unique ID : 147084644105904609008747815656281578089 (0x6EA778D7E55A3EFBFEF9D6911BE39A69)
Complete name : D:\Stargate.SG-1.S01E02.720p.HDTV.-SFM\Stargate.SG-1.S01E02.720p.HDTV.-SFM.
Format :
Format version : Version 2
File size : 1.12 GiB
Duration : 41 min 14 s
Overall bit rate : 3 896 kb/s
Encoded date : UTC 2018-04-20 00:46:23
Writing application : v22.0.0 ('At The End Of The World') 64-bit
Writing library : libebml v1.3.5 + v1.4.8

Video
ID : 1
Format : AVC
Format/Info : Advanced Video Codec
Format profile : [email protected]
Format settings : CABAC / 5 Ref Frames
Format settings, CABAC : Yes
Format settings, RefFrames : 5 frames
Codec ID : V_MPEG4/ISO/AVC
Duration : 41 min 14 s
Bit rate : 3 766 kb/s
Width : 1 280 pixels
Height : 720 pixels
Display aspect ratio : 16:9
Frame rate mode : Constant
Frame rate : 25.000 FPS
Color space : YUV
Chroma subsampling : 4:2:0
Bit depth : 8 bits
Scan type : Progressive
Bits/(Pixel*Frame) : 0.163
Stream size : 1.08 GiB (97%)
Writing library : core 155 r2901 7d0ff22
Encoding settings : cabac=1 / ref=5 / deblock=1:-1:-1 / analyse=0x3:0x113 / me=umh / subme=8 / psy=1 / psy_rd=1.00:0.15 / mixed_ref=1 / me_range=16 / chroma_me=1 / trellis=1 / 8x8dct=1 / cqm=0 / deadzone=21,11 / fast_pskip=1 / chroma_qp_offset=-3 / threads=6 / lookahead_threads=1 / sliced_threads=0 / nr=0 / decimate=1 / interlaced=0 / bluray_compat=0 / constrained_intra=0 / bframes=3 / b_pyramid=2 / b_adapt=2 / b_bias=0 / direct=3 / weightb=1 / open_gop=0 / weightp=2 / keyint=250 / keyint_min=25 / scenecut=40 / intra_refresh=0 / rc_lookahead=50 / rc=crf / mbtree=1 / crf=18.0 / qcomp=0.60 / qpmin=0 / qpmax=69 / qpstep=4 / vbv_maxrate=62500 / vbv_bufsize=78125 / crf_max=0.0 / nal_hrd=none / filler=0 / ip_ratio=1.40 / aq=1:1.00
Default : Yes
Forced : No

Audio
ID : 2
Format : MPEG Audio
Format version : Version 1
Format profile : Layer 2
Codec ID : A_MPEG/L2
Codec ID/Hint : MP2
Duration : 41 min 14 s
Bit rate mode : Constant
Bit rate : 128 kb/s
Channel(s) : 2 channels
Sampling rate : 48.0 kHz
Frame rate : 41.667 FPS (1152 SPF)
Compression mode : Lossy
Stream size : 37.8 MiB (3%)
Language : English
Default : Yes
Forced : No
s01e07
General
Unique ID : 237498826461978669906406618006308196212 (0xB2AC9C33B524BC1473E52166AB4F0F74)
Complete name : D:\Stargate.SG-1.S01E07.720p.HDTV.-SFM\Stargate.SG-1.S01E07.720p.HDTV.-SFM.
Format :
Format version : Version 2
File size : 1.34 GiB
Duration : 41 min 14 s
Overall bit rate : 4 636 kb/s
Encoded date : UTC 2018-04-22 17:47:51
Writing application : v22.0.0 ('At The End Of The World') 64-bit
Writing library : libebml v1.3.5 + v1.4.8

Video
ID : 1
Format : AVC
Format/Info : Advanced Video Codec
Format profile : [email protected]
Format settings : CABAC / 5 Ref Frames
Format settings, CABAC : Yes
Format settings, RefFrames : 5 frames
Codec ID : V_MPEG4/ISO/AVC
Duration : 41 min 14 s
Bit rate : 4 507 kb/s
Width : 1 280 pixels
Height : 720 pixels
Display aspect ratio : 16:9
Frame rate mode : Constant
Frame rate : 25.000 FPS
Color space : YUV
Chroma subsampling : 4:2:0
Bit depth : 8 bits
Scan type : Progressive
Bits/(Pixel*Frame) : 0.196
Stream size : 1.30 GiB (97%)
Writing library : core 155 r2901 7d0ff22
Encoding settings : cabac=1 / ref=5 / deblock=1:-1:-1 / analyse=0x3:0x113 / me=umh / subme=8 / psy=1 / psy_rd=1.00:0.15 / mixed_ref=1 / me_range=16 / chroma_me=1 / trellis=1 / 8x8dct=1 / cqm=0 / deadzone=21,11 / fast_pskip=1 / chroma_qp_offset=-3 / threads=6 / lookahead_threads=1 / sliced_threads=0 / nr=0 / decimate=1 / interlaced=0 / bluray_compat=0 / constrained_intra=0 / bframes=3 / b_pyramid=2 / b_adapt=2 / b_bias=0 / direct=3 / weightb=1 / open_gop=0 / weightp=2 / keyint=250 / keyint_min=25 / scenecut=40 / intra_refresh=0 / rc_lookahead=50 / rc=crf / mbtree=1 / crf=18.0 / qcomp=0.60 / qpmin=0 / qpmax=69 / qpstep=4 / vbv_maxrate=62500 / vbv_bufsize=78125 / crf_max=0.0 / nal_hrd=none / filler=0 / ip_ratio=1.40 / aq=1:1.00
Default : Yes
Forced : No

Audio
ID : 2
Format : MPEG Audio
Format version : Version 1
Format profile : Layer 2
Codec ID : A_MPEG/L2
Codec ID/Hint : MP2
Duration : 41 min 14 s
Bit rate mode : Constant
Bit rate : 128 kb/s
Channel(s) : 2 channels
Sampling rate : 48.0 kHz
Frame rate : 41.667 FPS (1152 SPF)
Compression mode : Lossy
Stream size : 37.8 MiB (3%)
Language : English
Default : Yes
Forced : No
s01e08
General
Unique ID : 280250751649384085314486937771113489711 (0xD2D654DA28F7F56BFEB010B04EB8A52F)
Complete name : D:\Stargate.SG-1.S01E08.720p.HDTV.-SFM\Stargate.SG-1.S01E08.720p.HDTV.-SFM.
Format :
Format version : Version 2
File size : 1.10 GiB
Duration : 41 min 14 s
Overall bit rate : 3 832 kb/s
Encoded date : UTC 2018-04-22 19:12:56
Writing application : v22.0.0 ('At The End Of The World') 64-bit
Writing library : libebml v1.3.5 + v1.4.8

Video
ID : 1
Format : AVC
Format/Info : Advanced Video Codec
Format profile : [email protected]
Format settings : CABAC / 5 Ref Frames
Format settings, CABAC : Yes
Format settings, RefFrames : 5 frames
Codec ID : V_MPEG4/ISO/AVC
Duration : 41 min 14 s
Bit rate : 3 702 kb/s
Width : 1 280 pixels
Height : 720 pixels
Display aspect ratio : 16:9
Frame rate mode : Constant
Frame rate : 25.000 FPS
Color space : YUV
Chroma subsampling : 4:2:0
Bit depth : 8 bits
Scan type : Progressive
Bits/(Pixel*Frame) : 0.161
Stream size : 1.07 GiB (97%)
Writing library : core 155 r2901 7d0ff22
Encoding settings : cabac=1 / ref=5 / deblock=1:-1:-1 / analyse=0x3:0x113 / me=umh / subme=8 / psy=1 / psy_rd=1.00:0.15 / mixed_ref=1 / me_range=16 / chroma_me=1 / trellis=1 / 8x8dct=1 / cqm=0 / deadzone=21,11 / fast_pskip=1 / chroma_qp_offset=-3 / threads=6 / lookahead_threads=1 / sliced_threads=0 / nr=0 / decimate=1 / interlaced=0 / bluray_compat=0 / constrained_intra=0 / bframes=3 / b_pyramid=2 / b_adapt=2 / b_bias=0 / direct=3 / weightb=1 / open_gop=0 / weightp=2 / keyint=250 / keyint_min=25 / scenecut=40 / intra_refresh=0 / rc_lookahead=50 / rc=crf / mbtree=1 / crf=18.0 / qcomp=0.60 / qpmin=0 / qpmax=69 / qpstep=4 / vbv_maxrate=62500 / vbv_bufsize=78125 / crf_max=0.0 / nal_hrd=none / filler=0 / ip_ratio=1.40 / aq=1:1.00
Default : Yes
Forced : No

Audio
ID : 2
Format : MPEG Audio
Format version : Version 1
Format profile : Layer 2
Codec ID : A_MPEG/L2
Codec ID/Hint : MP2
Duration : 41 min 14 s
Bit rate mode : Constant
Bit rate : 128 kb/s
Channel(s) : 2 channels
Sampling rate : 48.0 kHz
Frame rate : 41.667 FPS (1152 SPF)
Compression mode : Lossy
Stream size : 37.8 MiB (3%)
Language : English
Default : Yes
Forced : No
Скріншоти

Pegass 
VIP


З нами з: 17.12.09
Востаннє: 26.05.18
Повідомлень: 767

2018-04-29 17:14  
https://fex.net/612760528510/444602901

Додано через 52 секунди:

Всі ті серії, що маю. завантажив сюди.
Ваш часовий пояс: GMT + 2 Години

Нова тема   Відповісти