Секс заради виживання (Survival Island) / Three (2005) 720p 2xUkr/Eng

Нові коментарі

Нова тема   Відповісти
Автор Повідомлення
Anonymous 







2018-04-24 19:20  
Секс заради виживання / Survival Island / Three (2005) 720p 2xUkr/Eng

Секс заради виживання (Survival Island) / Three (2005) 720p 2xUkr/Eng


Жанр: пригодницький, драма
Країна: США, Велика Британія, Люксембур



Кінокомпанія: Thema Production, T Films, Future Films
Режисер: Стюарт Реффіл
Актори: Біллі Зейн, Келлі Брук, Хуан Пабло Ді Паке, Тодд Коллінз, Гебріелль Джордан, Гері Брокетт, Ізабелль Константіні, Рой Рівера, Марія Вікторія Ді Паке, Саммер Девіс

Сюжет:
На безлюдному острові намагаються співіснувати три абсолютно не схожих один на одного людини. Мануель - стильний пляжний мачо з загостреним почуттям справедливості, Джек - жадібний мільйонер та Дженніфер - пишногруда лялечка, яка кидається від одного чоловіка до іншого, аби вижити ...


Тривалість: 01:35:11
Якість:
Відео:
кодек:
розмір кадру: 1280 х 720
бітрейт: 3853 кб/с

Аудіо # 1:

мова: українська
переклад: багатоголосий закадровий
кодек: 2.0
бітрейт: 192 кб/с

Аудіо # 2:
мова: українська
переклад: двоголосий закадровий
кодек: 2.0
бітрейт: 192 кб/с

Аудіо # 3:
мова: англійська
переклад: оригінал
кодек: 2.0
бітрейт: 192 кб/с
Info
General
Unique ID : 191967901840928106535699996352978821403 (0x906BAC4D1D226674A2F636C48B9B211B)
Complete name : D:\movies\Survival Island (2005) 720p AVC [2xukr.eng] Hurtom.
Format :
Format version : Version 4 / Version 2
File size : 2.94 GiB
Duration : 1 h 35 min
Overall bit rate : 4 429 kb/s
Encoded date : UTC 2018-04-24 17:14:39
Writing application : v21.0.0 ('Tardigrades Will Inherit The Earth') 64-bit
Writing library : libebml v1.3.5 + v1.4.8

Video
ID : 1
Format : AVC
Format/Info : Advanced Video Codec
Format profile : [email protected]
Format settings, CABAC : Yes
Format settings, ReFrames : 3 frames
Codec ID : V_MPEG4/ISO/AVC
Duration : 1 h 35 min
Bit rate : 3 853 kb/s
Width : 1 280 pixels
Height : 720 pixels
Display aspect ratio : 16:9
Frame rate mode : Constant
Frame rate : 23.976 (24000/1001) FPS
Color space : YUV
Chroma subsampling : 4:2:0
Bit depth : 8 bits
Scan type : Progressive
Bits/(Pixel*Frame) : 0.174
Stream size : 2.56 GiB (87%)
Writing library : core 155 r2901 7d0ff22
Encoding settings : cabac=1 / ref=3 / deblock=1:0:0 / analyse=0x3:0x113 / me=umh / subme=10 / psy=1 / psy_rd=1.00:0.00 / mixed_ref=1 / me_range=24 / chroma_me=1 / trellis=2 / 8x8dct=1 / cqm=0 / deadzone=21,11 / fast_pskip=1 / chroma_qp_offset=-2 / threads=12 / lookahead_threads=1 / sliced_threads=0 / nr=0 / decimate=1 / interlaced=0 / bluray_compat=0 / constrained_intra=0 / bframes=3 / b_pyramid=0 / b_adapt=1 / b_bias=0 / direct=1 / weightb=1 / open_gop=0 / weightp=2 / keyint=240 / keyint_min=23 / scenecut=40 / intra_refresh=0 / rc_lookahead=40 / rc=crf / mbtree=1 / crf=21.0 / qcomp=0.60 / qpmin=0 / qpmax=69 / qpstep=4 / vbv_maxrate=62500 / vbv_bufsize=78125 / crf_max=0.0 / nal_hrd=none / filler=0 / ip_ratio=1.40 / aq=1:1.00
Default : Yes
Forced : No

Audio #1
ID : 2
Format : AC-3
Format/Info : Audio Coding 3
Mode extension : CM (complete main)
Format settings, Endianness : Big
Codec ID : A_AC3
Duration : 1 h 34 min
Bit rate mode : Constant
Bit rate : 192 kb/s
Channel(s) : 2 channels
Channel positions : Front: L R
Sampling rate : 48.0 kHz
Frame rate : 31.250 FPS (1536 spf)
Bit depth : 16 bits
Compression mode : Lossy
Delay relative to video : 12 ms
Stream size : 130 MiB (4%)
Title : HTH channel
Language : Ukrainian
Default : Yes
Forced : Yes

Audio #2
ID : 3
Format : AC-3
Format/Info : Audio Coding 3
Mode extension : CM (complete main)
Format settings, Endianness : Big
Codec ID : A_AC3
Duration : 1 h 34 min
Bit rate mode : Constant
Bit rate : 192 kb/s
Channel(s) : 2 channels
Channel positions : Front: L R
Sampling rate : 48.0 kHz
Frame rate : 31.250 FPS (1536 spf)
Bit depth : 16 bits
Compression mode : Lossy
Delay relative to video : 16 ms
Stream size : 130 MiB (4%)
Title : 2+2 channel
Language : Ukrainian
Default : No
Forced : No

Audio #3
ID : 4
Format : AC-3
Format/Info : Audio Coding 3
Mode extension : CM (complete main)
Format settings, Endianness : Big
Codec ID : A_AC3
Duration : 1 h 34 min
Bit rate mode : Constant
Bit rate : 192 kb/s
Channel(s) : 2 channels
Channel positions : Front: L R
Sampling rate : 48.0 kHz
Frame rate : 31.250 FPS (1536 spf)
Bit depth : 16 bits
Compression mode : Lossy
Delay relative to video : 12 ms
Stream size : 130 MiB (4%)
Language : English
Default : No
Forced : No
Скріншоти






Джерело:

Дякую krigg070 за доріжку від 2+2


 Трекер:    Зареєстрований   

Завантажити / скачати фільм українською



відео для новачків



 Зареєстрований:   2018-04-24 19:20
 Розмір:   2.94 GB 
 Оцінка фільму:   6.7/10 (Голосів: 6)
   
Інші релізи
-_-В_E_N_D_E_R-_- 
Забанено
Забанено


З нами з: 22.04.18
Востаннє: 24.06.18
Повідомлень: 187

2018-04-24 19:36  
На таке потрібно дивитися в HD
Virake 
Localize Team
Localize Team


З нами з: 07.07.09
Востаннє: 23.01.20
Повідомлень: 6559

2018-04-24 20:07  
в назві теми і в заголовку треба вказати якість і мови озвучення
virtus8hur 
Попереджень: 1
Попереджень: 1 


З нами з: 06.02.10
Востаннє: 22.01.20
Повідомлень: 3871

2018-04-24 21:01  
-_-В_E_N_D_E_R-_- написано:
На таке потрібно дивитися в HD

А є на що дивитись) ?

-_-В_E_N_D_E_R-_- 
Забанено
Забанено


З нами з: 22.04.18
Востаннє: 24.06.18
Повідомлень: 187

2018-04-24 21:22  
virtus8hur
От я перегляну і тоді скажу на що там можна дивитися

igor911 
Модератор відео


З нами з: 18.01.08
Востаннє: 23.01.20
Повідомлень: 13967

2018-04-24 21:28  
Додаток до релізів в якості HD написано:
1. Скріншоти повинні бути у форматі .png


Додано через 21 секунду:

треба замінити скріншоти

zgryvus 
Відео Гуртом - дизайнер
Відео Гуртом - дизайнер


З нами з: 21.08.09
Востаннє: 22.01.20
Повідомлень: 1500

2018-04-24 22:21  
virtus8hur написано:
А є на що дивитись) ?

Чесно, нема на що. Реально там тільки одна сцена, яка би могла скрасити перегляд нудного фільму, але і ту зіпсули. Все банально і не продумано, там хіба Зейн вартий уваги з кількома трюками виживання, але то таке дуже-дуже другорядне.
Прокатчики не відповідно адаптували назву до змісту фільму Cry (1)

respect14 
VIP


З нами з: 26.01.11
Востаннє: 23.01.20
Повідомлень: 581

2018-04-25 19:52  
А звідки взялось слово "Секс" в назві? З постера щось не з видно нічого
Maximenko Yuriy 
VIP


З нами з: 17.11.08
Востаннє: 23.12.19
Повідомлень: 435

2018-04-27 07:08  
в аві буде? або хоч доріжки окремо дайте будь-ласка
Ваш часовий пояс: GMT + 2 Години

Нова тема   Відповісти