Ґолдберги (Сезон 1) / The Goldbergs (Season 1) (2013) DVBRip-AVC

Нові коментарі

Нова тема   Відповісти
Автор Повідомлення
Anonymous 







2018-04-24 20:17  
Ґолдберги (Сезон 1) / The Goldbergs (Season 1) (2013) DVBRip-AVC

Другий сезон | Третій сезон | Четвертий сезон | П'ятий сезон | Шостий сезон




Жанр: комедія, сімейний
Країна: США



Кінокомпанія / телеканал: Adam F. Goldberg Productions, Happy Madison Productions, Sony Pictures Television
Режисер: Адам Ф. Ґолдберг
Актори/ролі озвучують: Венді Маклендон-Кові, Сіан Амброн, Трой Джентіле, Гейлі Орранція, Джордж Сігал, Джефф Гарлін

Сюжет:
Події серіалу відбуваються в «1980-якомусь році» в містечку Дженкінтаун. У центрі сюжету сім'я Ґолдбергів. Головний герой серіалу хлопчик на ім'я Адам, який полюбляє роботів, фільми та майже завжди ходить зі своєю відеокамерою і фіксує різні події свого життя та сім'ї.
Серіал частково засновано на дитинстві та юності продюсера та сценариста Адама Ф. Ґолдберга, який теж знімав в дитинстві усе камерою і реальні зйомки потрапили у кожну серію серіалу.


Тривалість: 1 серія: 20хв (цілком серій: 23)
Перелік серій

1. The Circle of Driving
2. Daddy Daughter Day
3. Mini Murray
4. Why're You Hitting Yourself?
5. The Ring
6. Who Are You Going to Telephone?
7. Call Me When You Get There
8. The Kremps
9. Stop Arguing & Start Thanking
10. Shopping
11. Kara-Te
12. You're Under Foot
13. The Other Smother
14. You Opened the Door
15. Muscles Mirsky
16. Goldbergs Never Say Die!
17. Lame Gretzky
18. For Your Own Good
19. The President's Fitness Test
20. You're Not Invited
21. The Age of Darkness
22. A Wrestler Called Goldberg
23. Livin' on a Prayer
Якість: DVBRip-AVC
Відео:
розмір кадру: 1024x574
бітрейт: ≈ 1900 кб/с

Аудіо:
мова: українська
переклад: багатоголосий закадровий
кодек: 2.0
бітрейт: 192 кб/с

Джерело озвучення:
Скріншоти













МІ
Complete name : E:\The Goldbergs (Season 1)\S01E01.mp4
Format : MPEG-4
Format profile : Base Media
Codec ID : isom (isom/iso2/avc1/mp41)
File size : 321 MiB
Duration : 20 min 32 s
Overall bit rate : 2 184 kb/s
Writing application : Lavf57.71.100

Video
ID : 1
Format : AVC
Format/Info : Advanced Video Codec
Format profile : [email protected]
Format settings, CABAC : Yes
Format settings, RefFrames : 5 frames
Codec ID : avc1
Codec ID/Info : Advanced Video Coding
Duration : 20 min 32 s
Bit rate : 1 986 kb/s
Width : 1 024 pixels
Height : 574 pixels
Display aspect ratio : 16:9
Frame rate mode : Constant
Frame rate : 25.000 FPS
Color space : YUV
Chroma subsampling : 4:2:0
Bit depth : 8 bits
Scan type : Progressive
Bits/(Pixel*Frame) : 0.135
Stream size : 292 MiB (91%)
Writing library : core 146 r2555 0c21480
Encoding settings : cabac=1 / ref=5 / deblock=1:-1:-1 / analyse=0x3:0x113 / me=umh / subme=8 / psy=1 / psy_rd=1.00:0.15 / mixed_ref=1 / me_range=16 / chroma_me=1 / trellis=1 / 8x8dct=1 / cqm=0 / deadzone=21,11 / fast_pskip=1 / chroma_qp_offset=-3 / threads=3 / lookahead_threads=1 / sliced_threads=0 / nr=0 / decimate=1 / interlaced=0 / bluray_compat=0 / constrained_intra=0 / bframes=3 / b_pyramid=2 / b_adapt=2 / b_bias=0 / direct=3 / weightb=1 / open_gop=0 / weightp=2 / keyint=250 / keyint_min=25 / scenecut=40 / intra_refresh=0 / rc_lookahead=50 / rc=crf / mbtree=1 / crf=20.0 / qcomp=0.60 / qpmin=0 / qpmax=69 / qpstep=4 / ip_ratio=1.40 / aq=1:1.00

Audio
ID : 2
Format : AC-3
Format/Info : Audio Coding 3
Format settings, Endianness : Big
Codec ID : ac-3
Duration : 20 min 32 s
Bit rate mode : Constant
Bit rate : 192 kb/s
Channel(s) : 2 channels
Channel positions : Front: L R
Sampling rate : 48.0 kHz
Frame rate : 31.250 FPS (1536 SPF)
Bit depth : 16 bits
Compression mode : Lossy
Stream size : 28.2 MiB (9%)
Language : English
Service kind : Complete Main
Default : Yes
Alternate group : 1
Подяка: Пану Sando7 за надані записи.
Джерело:
Особиста оцінка: 10 - без зайвих вагань рекомендую всім!



Бронзовий реліз (на рейтинг впливає 75% завантаженого)
 Трекер:    Зареєстрований   

Завантажити / скачати серіал українською



відео для новачків



 Зареєстрований:   2018-04-24 20:17
 Розмір:   6.88 GB 
 Оцінка серіалу:   9.8/10 (Голосів: 8)
   
Electroz 
Відео Гуртом - підтримка та поширення
Відео Гуртом - підтримка та поширення


З нами з: 18.09.14
Востаннє: 25.08.19
Повідомлень: 3540

2018-04-24 21:22  
Anonymous написано:

Хіба не 'u?

Anonymous 







2018-04-24 21:39  
Electroz написано:
Хіба не 'u?

Ні. Записи з цифрового кабельного телебачення.

igor911 
Модератор відео


З нами з: 18.01.08
Востаннє: 25.08.19
Повідомлень: 13177

2018-04-25 11:34  
Anonymous написано:
Записи з цифрового кабельного телебачення.

Тоді це DVBRip

Додано через 11 хвилин 36 секунд:

здебільшого використовується для позначення запису з аналогового сигналу.

Додано через 1 хвилину 24 секунди:

Anonymous, додай, будь ласка, звіт Info.

sergeyzzz 
Новенький


З нами з: 09.02.17
Востаннє: 18.08.19
Повідомлень: 9

2018-05-02 18:49  
Де би другий сезон надибати?
Anonymous 







2018-05-03 19:58  
sergeyzzz написано:
Де би другий сезон надибати?

зараз триває показ, після того як покажуть увесь буде і реліз.

sergeyzzz 
Новенький


З нами з: 09.02.17
Востаннє: 18.08.19
Повідомлень: 9

2018-05-05 15:04  
Дякую! Почекаю Happy
380990387745 
Новенький


З нами з: 13.10.13
Востаннє: 24.08.19
Повідомлень: 10

2018-06-16 18:31  
де можна подивитись канал PARAMOUNT COMEDY UA?????????????
-_-B_Е_N_D_Е_R-_- 
Забанено
Забанено


З нами з: 30.05.18
Востаннє: 24.06.18
Повідомлень: 282

2018-06-16 18:33  
380990387745
На телевізорі

Ти в гуглі таке не пробував написати?

Додано через 57 секунд:

Це навіть у вікіпедії пише https://uk.wikipedia.org/wiki/Paramount_Comedy_%D0%A3%D0%BA%D1%80%D0%B0%D1%97%D0%BD%D0%B0

Додано через 19 секунд:

Цитата:
Наприкінці грудня 2017 року / на початку січня 2018 року «1+1 медіа» розпочала повноцінне мовлення україномовної версії телеканалу «Paramount Comedy Україна» і канал з'явився в пакетах наступних українських кабельних та супутниковх операторів: 18 грудня 2017 - Київстар, пакет "Домашнє ТБ",[7] початок січня 2018 - Viasat Україна,[8] 1 січня 2018 - Місто-ТВ,[9] 2 січня 2018 - Тріолан,[10] 5 січня 2018 - Xtra TV,[11] 10 січня 2018 - Воля[12].

Anоnymous 
VIP


З нами з: 25.08.18
Востаннє: 04.06.19
Повідомлень: 808

2018-08-30 20:43  
Комусь потрібні з амазону цьогос cеріалу?
Чи і так зійде?

Ваш часовий пояс: GMT + 2 Години

Нова тема   Відповісти