Загублені у космосі (Сезон 1) / Lost in Space (Season 1) (2018) 720p Ukr/Eng | Sub Eng/Multi

Нові коментарі

Нова тема   Відповісти
Сторінка:  1, 2  наступна
Автор Повідомлення
Anonymous 







2018-04-23 20:00  
Загублені у космосі (Сезон 1) / Lost in Space (Season 1) (2018) 720p Ukr/Eng | Sub Eng/Multi



Жанр: драма, наукова фантастика, трилер, пригодницький
Країна: США



Кінокомпанія: Legendary Television, Synthesis Entertainment, Applebox Pictures, Clickety-Clack Productions, Netflix
Режисер: Тім Соутем / Tim Southam, Дебора Чоу / Deborah Chow, Стівен Суржик / Stephen Surjik
Актори: Молі Паркер / Molly Parker, Тобі Стівенс / Toby Stephens, Паркер Поузі / Parker Posey, Макс Дженкинс / Maxwell Jenkins, Тейлор Расселл / Taylor Russell, Міна Сандвол / Mina Sundwall, Ігнасіо Серричіо / Ignacio Serricchio, Амелія Берстін / Amelia Burstyn, Раза Джеффрі / Raza Jaffrey, Аджай Фрізе / Ajay Friese, Браян Стіл / Brian Steele та інші

Сюжет:
2046 рік. Космічний корабель губиться в космосі і зазнає аварії на планеті, яка знаходиться на відстані кількох світлових років від запланованого місця призначення.
Члени екіпажу, сім’я Робінсонів, змушені пристосуватися і вижити в нових умовах.

Український трейлер від DZUSKI.COM


Рейтинг MPAA: TV-PG - дітям до 13 років перегляд не бажаний
Вікова категорія: 12+

Тривалість: 1 серія: 48-65 хв. (цілком серій: 10 з 10)
Перелік серій:
1. Impact
2. Diamonds in the Sky
3. Infestation
4. The Robinsons Were Here
5. Transmission
6. Eulogy
7. Pressurized
8. Trajectory
9. Resurrection
10. Danger, Will Robinson
Якість: 720p
Відео:
кодек:
розмір кадру: 1280 х 640
бітрейт: 1880-3182 кб/с

Аудіо # 1:
мова: українська
озвучення: двоголосе закадрове | DZUSKI.COM
кодек: 2.0 (крім 4ї), MP3 (4 серія)
бітрейт: 192 кб/с

Інформація про переклад та озвучення:
Переклад: Наталя Плотник
Робота зі звуком: Trina_D
Ролі озвучили: AdrianZP, Trina_D
Окрема подяка: drakon87

Аудіо # 2:
мова: англійська
переклад: оригінал
кодек: E- 5.1
бітрейт: 448 кб/с

Субтитри:
мова: англійська, німецька (крім 3ї, 8ї, 10ї), французька (крім 3ї), нідерландська (1-2, 4, 6, 9), турецька (1, 4, 6), іспанська (2-3, 8-10), польська (3, 8, 10), португальська (3, 5, 8-10), італійська (5)
тип: програмні (м'які)
формат: srt/
Info
1 серія
Код:
Complete name               : s01e01.Lost.in.Space.2018.[Ukr,Eng]..720p.[Hurtom&Dzuski].
Format                      :
Format version              : Version 4 / Version 2
File size                   : 1.44 GiB
Duration                    : 1 h 3 min
Overall bit rate            : 3 241 kb/s
Movie name                  : s01e01 Загублені у космосі / Lost in Space (2018) [Ukr,Eng] 720p [Hurtom&Dzuski]
Released date               : 2018
Encoded date                : UTC 2018-04-23 17:12:24
Writing application         : v22.0.0 ('At The End Of The World') 64-bit
Writing library             : libebml v1.3.5 + v1.4.8
Cover                       : Yes
Comment                     : http://www.imdb.com/title/tt5232792/
Attachments                 : cover.jpg / OpenSans-Semibold.ttf
ARTIST                      : Молі Паркер / Molly Parker, Тобі Стівенс / Toby Stephens, Паркер Поузі / Parker Posey, Макс Дженкинс / Maxwell Jenkins, Тейлор Расселл / Taylor Russell, Міна Сандвол / Mina Sundwall, Ігнасіо Серричіо / Ignacio Serricchio, Амелія Берстін / Amelia Burstyn, Раза Джеффрі / Raza Jaffrey, Аджай Фрізе / Ajay Friese, Браян Стіл / Brian Steele та інші
DIRECTOR                    : Тім Соутем / Tim Southam, Дебора Чоу / Deborah Chow, Стівен Суржик / Stephen Surjik
GENRE                       : драма, наукова фантастика, трилер, пригодницький
SYNOPSIS                    : 2046 рік. Космічний корабель губиться в космосі і зазнає аварії на планеті, яка знаходиться на відстані кількох світлових років від запланованого місця призначення. Члени екіпажу, сім’я Робінсонів, змушені пристосуватися і вижити в нових умовах...
Url                         : https://toloka.to/t89533

Video
ID                          : 1
Format                      : AVC
Format/Info                 : Advanced Video Codec
Format profile              : [email protected]
Format settings             : CABAC / 5 Ref Frames
Format settings, CABAC      : Yes
Format settings, ReFrames   : 5 frames
Codec ID                    : V_MPEG4/ISO/AVC
Duration                    : 1 h 3 min
Bit rate                    : 2 607 kb/s
Width                       : 1 280 pixels
Height                      : 640 pixels
Display aspect ratio        : 2.000
Frame rate mode             : Constant
Frame rate                  : 23.976 (24000/1001) FPS
Color space                 : YUV
Chroma subsampling          : 4:2:0
Bit depth                   : 8 bits
Scan type                   : Progressive
Bits/(Pixel*Frame)          : 0.133
Stream size                 : 1.16 GiB (80%)
Title                       : s01e01 Загублені у космосі / Lost in Space (2018) 720p [WEBTiFUL]
Writing library             : core 155 r2901 7d0ff22
Encoding settings           : cabac=1 / ref=5 / deblock=1:0:0 / analyse=0x3:0x113 / me=hex / subme=8 / psy=1 / psy_rd=1.00:0.00 / mixed_ref=1 / me_range=16 / chroma_me=1 / trellis=2 / 8x8dct=1 / cqm=0 / deadzone=21,11 / fast_pskip=1 / chroma_qp_offset=-2 / threads=20 / lookahead_threads=3 / sliced_threads=0 / nr=0 / decimate=1 / interlaced=0 / bluray_compat=0 / constrained_intra=0 / bframes=3 / b_pyramid=2 / b_adapt=1 / b_bias=0 / direct=3 / weightb=1 / open_gop=0 / weightp=2 / keyint=240 / keyint_min=24 / scenecut=40 / intra_refresh=0 / rc_lookahead=50 / rc=crf / mbtree=1 / crf=18.0 / qcomp=0.60 / qpmin=0 / qpmax=69 / qpstep=4 / vbv_maxrate=62500 / vbv_bufsize=78125 / crf_max=0.0 / nal_hrd=none / filler=0 / ip_ratio=1.40 / aq=1:1.00
Language                    : English
Default                     : Yes
Forced                      : No
Color range                 : Limited
Color primaries             : BT.709
Transfer characteristics    : BT.709
Matrix coefficients         : BT.709

Audio #1
ID                          : 2
Format                      : AC-3
Format/Info                 : Audio Coding 3
Codec ID                    : A_AC3
Duration                    : 1 h 3 min
Bit rate mode               : Constant
Bit rate                    : 192 kb/s
Channel(s)                  : 2 channels
Channel positions           : Front: L R
Sampling rate               : 48.0 kHz
Frame rate                  : 31.250 FPS (1536 SPF)
Bit depth                   : 16 bits
Compression mode            : Lossy
Stream size                 : 87.4 MiB (6%)
Title                       : DVO [DZUSKI.COM], 2.0 192 Kbps
Language                    : Ukrainian
Service kind                : Complete Main
Default                     : Yes
Forced                      : Yes

Audio #2
ID                          : 3
Format                      : E-AC-3
Format/Info                 : Enhanced Audio Coding 3
Format profile              : E-AC-3+Atmos / E-AC-3
Codec ID                    : A_EAC3
Duration                    : 1 h 2 min
Bit rate mode               : Constant
Bit rate                    : 448 kb/s
Channel(s)                  : 15 objects / 6 channels
Channel positions           : 15 objects / Front: L C R, Side: L R, LFE
Sampling rate               : 48.0 kHz
Frame rate                  : 187.500 FPS (256 SPF)
Compression mode            : Lossy
Stream size                 : 201 MiB (14%)
Title                       : Original, E- 5.1 448 Kbps
Language                    : English
Service kind                : Complete Main
Default                     : No
Forced                      : No

Text #1
ID                          : 4
Format                      :
Codec ID                    : S_TEXT/
Codec ID/Info               : Advanced Sub Station Alpha
Duration                    : 1 h 0 min
Bit rate                    : 91 b/s
Count of elements           : 805
Compression mode            : Lossless
Stream size                 : 40.5 KiB (0%)
Title                       : English
Language                    : English
Default                     : No
Forced                      : No

Text #2
ID                          : 5
Format                      :
Codec ID                    : S_TEXT/
Codec ID/Info               : Advanced Sub Station Alpha
Duration                    : 1 h 2 min
Bit rate                    : 67 b/s
Count of elements           : 633
Compression mode            : Lossless
Stream size                 : 30.8 KiB (0%)
Title                       : German
Language                    : German
Default                     : No
Forced                      : No

Text #3
ID                          : 6
Format                      :
Codec ID                    : S_TEXT/
Codec ID/Info               : Advanced Sub Station Alpha
Duration                    : 1 h 2 min
Bit rate                    : 68 b/s
Count of elements           : 634
Compression mode            : Lossless
Stream size                 : 31.5 KiB (0%)
Title                       : French
Language                    : French
Default                     : No
Forced                      : No

Text #4
ID                          : 7
Format                      :
Codec ID                    : S_TEXT/
Codec ID/Info               : Advanced Sub Station Alpha
Duration                    : 1 h 2 min
Bit rate                    : 62 b/s
Count of elements           : 593
Compression mode            : Lossless
Stream size                 : 28.5 KiB (0%)
Title                       : Dutch
Language                    : Dutch
Default                     : No
Forced                      : No

Text #5
ID                          : 8
Format                      :
Codec ID                    : S_TEXT/
Codec ID/Info               : Advanced Sub Station Alpha
Duration                    : 1 h 2 min
Bit rate                    : 72 b/s
Count of elements           : 662
Compression mode            : Lossless
Stream size                 : 33.3 KiB (0%)
Title                       : Turkish
Language                    : Turkish
Default                     : No
Forced                      : No
2 серія
Код:
Complete name               : s01e02.Lost.in.Space.2018.[Ukr,Eng]..720p.[Hurtom&Dzuski].
Format                      :
Format version              : Version 4 / Version 2
File size                   : 1.51 GiB
Duration                    : 56 min 33 s
Overall bit rate            : 3 812 kb/s
Movie name                  : s01e02 Загублені у космосі / Lost in Space (2018) [Ukr,Eng] 720p [Hurtom & Dzuski]
Released date               : 2018
Encoded date                : UTC 2018-04-30 20:47:35
Writing application         : v22.0.0 ('At The End Of The World') 64-bit
Writing library             : libebml v1.3.5 + v1.4.8
Cover                       : Yes
Comment                     : http://www.imdb.com/title/tt5232792/
Attachments                 : cover.jpg
ARTIST                      : Молі Паркер / Molly Parker, Тобі Стівенс / Toby Stephens, Паркер Поузі / Parker Posey, Макс Дженкинс / Maxwell Jenkins, Тейлор Расселл / Taylor Russell, Міна Сандвол / Mina Sundwall, Ігнасіо Серричіо / Ignacio Serricchio, Амелія Берстін / Amelia Burstyn, Раза Джеффрі / Raza Jaffrey, Аджай Фрізе / Ajay Friese, Браян Стіл / Brian Steele та інші
DIRECTOR                    : Тім Соутем / Tim Southam, Дебора Чоу / Deborah Chow, Стівен Суржик / Stephen Surjik
GENRE                       : драма, наукова фантастика, трилер, пригодницький
SYNOPSIS                    : 2046 рік. Космічний корабель губиться в космосі і зазнає аварії на планеті, яка знаходиться на відстані кількох світлових років від запланованого місця призначення. Члени екіпажу, сім’я Робінсонів, змушені пристосуватися і вижити в нових умовах...
Url                         : https://toloka.to/t89533

Video
ID                          : 1
Format                      : AVC
Format/Info                 : Advanced Video Codec
Format profile              : [email protected]
Format settings             : CABAC / 5 Ref Frames
Format settings, CABAC      : Yes
Format settings, ReFrames   : 5 frames
Codec ID                    : V_MPEG4/ISO/AVC
Duration                    : 56 min 27 s
Bit rate                    : 3 182 kb/s
Width                       : 1 280 pixels
Height                      : 640 pixels
Display aspect ratio        : 2.000
Frame rate mode             : Constant
Frame rate                  : 23.976 (24000/1001) FPS
Color space                 : YUV
Chroma subsampling          : 4:2:0
Bit depth                   : 8 bits
Scan type                   : Progressive
Bits/(Pixel*Frame)          : 0.162
Stream size                 : 1.26 GiB (83%)
Title                       : s01e02 Загублені у космосі / Lost in Space (2018) 720p [strife]
Writing library             : core 155 r2901 7d0ff22
Encoding settings           : cabac=1 / ref=5 / deblock=1:-3:-3 / analyse=0x3:0x113 / me=hex / subme=8 / psy=1 / psy_rd=1.00:0.15 / mixed_ref=1 / me_range=16 / chroma_me=1 / trellis=2 / 8x8dct=1 / cqm=0 / deadzone=21,11 / fast_pskip=0 / chroma_qp_offset=-2 / threads=20 / lookahead_threads=3 / sliced_threads=0 / nr=0 / decimate=1 / interlaced=0 / bluray_compat=0 / constrained_intra=0 / bframes=3 / b_pyramid=2 / b_adapt=1 / b_bias=0 / direct=3 / weightb=1 / open_gop=0 / weightp=2 / keyint=250 / keyint_min=23 / scenecut=40 / intra_refresh=0 / rc_lookahead=50 / rc=crf / mbtree=1 / crf=18.0 / qcomp=0.60 / qpmin=0 / qpmax=69 / qpstep=4 / ip_ratio=1.40 / aq=3:0.80
Language                    : English
Default                     : Yes
Forced                      : No
Color range                 : Limited
Matrix coefficients         : BT.709

Audio #1
ID                          : 2
Format                      : AC-3
Format/Info                 : Audio Coding 3
Codec ID                    : A_AC3
Duration                    : 56 min 33 s
Bit rate mode               : Constant
Bit rate                    : 192 kb/s
Channel(s)                  : 2 channels
Channel positions           : Front: L R
Sampling rate               : 48.0 kHz
Frame rate                  : 31.250 FPS (1536 SPF)
Bit depth                   : 16 bits
Compression mode            : Lossy
Stream size                 : 77.7 MiB (5%)
Title                       : DVO [DZUSKI.COM], 2.0 192 Kbps
Language                    : Ukrainian
Service kind                : Complete Main
Default                     : Yes
Forced                      : Yes

Audio #2
ID                          : 3
Format                      : E-AC-3
Format/Info                 : Enhanced Audio Coding 3
Format profile              : E-AC-3+Atmos / E-AC-3
Codec ID                    : A_EAC3
Duration                    : 55 min 37 s
Bit rate mode               : Constant
Bit rate                    : 448 kb/s
Channel(s)                  : 15 objects / 6 channels
Channel positions           : 15 objects / Front: L C R, Side: L R, LFE
Sampling rate               : 48.0 kHz
Frame rate                  : 187.500 FPS (256 SPF)
Compression mode            : Lossy
Stream size                 : 178 MiB (12%)
Title                       : Original, E- 5.1 448 Kbps
Language                    : English
Service kind                : Complete Main
Default                     : No
Forced                      : No

Text #1
ID                          : 4
Format                      : UTF-8
Codec ID                    : S_TEXT/UTF8
Codec ID/Info               : UTF-8 Plain Text
Duration                    : 53 min 33 s
Bit rate                    : 43 b/s
Count of elements           : 612
Stream size                 : 17.1 KiB (0%)
Title                       : English
Language                    : English
Default                     : No
Forced                      : No

Text #2
ID                          : 5
Format                      : UTF-8
Codec ID                    : S_TEXT/UTF8
Codec ID/Info               : UTF-8 Plain Text
Duration                    : 55 min 30 s
Bit rate                    : 32 b/s
Count of elements           : 475
Stream size                 : 13.4 KiB (0%)
Title                       : German
Language                    : German
Default                     : No
Forced                      : No

Text #3
ID                          : 6
Format                      : UTF-8
Codec ID                    : S_TEXT/UTF8
Codec ID/Info               : UTF-8 Plain Text
Duration                    : 55 min 16 s
Bit rate                    : 33 b/s
Count of elements           : 470
Stream size                 : 13.4 KiB (0%)
Title                       : French
Language                    : French
Default                     : No
Forced                      : No

Text #4
ID                          : 7
Format                      : UTF-8
Codec ID                    : S_TEXT/UTF8
Codec ID/Info               : UTF-8 Plain Text
Duration                    : 55 min 16 s
Bit rate                    : 29 b/s
Count of elements           : 437
Stream size                 : 12.1 KiB (0%)
Title                       : Dutch
Language                    : Dutch
Default                     : No
Forced                      : No

Text #5
ID                          : 8
Format                      : UTF-8
Codec ID                    : S_TEXT/UTF8
Codec ID/Info               : UTF-8 Plain Text
Duration                    : 55 min 16 s
Bit rate                    : 32 b/s
Count of elements           : 495
Stream size                 : 13.3 KiB (0%)
Title                       : Spanish
Language                    : Spanish
Default                     : No
Forced                      : No
3 серія
Код:
Complete name               : s01e03.Lost.in.Space.2018.[Ukr,Eng]..720p.[Hurtom&Dzuski].
Format                      :
Format version              : Version 4 / Version 2
File size                   : 1.03 GiB
Duration                    : 55 min 40 s
Overall bit rate            : 2 652 kb/s
Movie name                  : s01e03 Загублені у космосі / Lost in Space (2018) [Ukr,Eng] 720p [Hurtom & Dzuski]
Released date               : 2018
Encoded date                : UTC 2018-05-11 12:36:57
Writing application         : v23.0.0 ('The Bride Said No') 64-bit
Writing library             : libebml v1.3.6 + v1.4.9
Cover                       : Yes
Comment                     : http://www.imdb.com/title/tt5232792/
Attachments                 : cover.jpg
ARTIST                      : Молі Паркер / Molly Parker, Тобі Стівенс / Toby Stephens, Паркер Поузі / Parker Posey, Макс Дженкинс / Maxwell Jenkins, Тейлор Расселл / Taylor Russell, Міна Сандвол / Mina Sundwall, Ігнасіо Серричіо / Ignacio Serricchio, Амелія Берстін / Amelia Burstyn, Раза Джеффрі / Raza Jaffrey, Аджай Фрізе / Ajay Friese, Браян Стіл / Brian Steele та інші
DIRECTOR                    : Тім Соутем / Tim Southam, Дебора Чоу / Deborah Chow, Стівен Суржик / Stephen Surjik
GENRE                       : драма, наукова фантастика, трилер, пригодницький
SYNOPSIS                    : 2046 рік. Космічний корабель губиться в космосі і зазнає аварії на планеті, яка знаходиться на відстані кількох світлових років від запланованого місця призначення. Члени екіпажу, сім’я Робінсонів, змушені пристосуватися і вижити в нових умовах...
Url                         : https://toloka.to/t89533

Video
ID                          : 1
Format                      : AVC
Format/Info                 : Advanced Video Codec
Format profile              : [email protected]
Format settings             : CABAC / 5 Ref Frames
Format settings, CABAC      : Yes
Format settings, ReFrames   : 5 frames
Codec ID                    : V_MPEG4/ISO/AVC
Duration                    : 55 min 37 s
Bit rate                    : 2 018 kb/s
Width                       : 1 280 pixels
Height                      : 640 pixels
Display aspect ratio        : 2.000
Frame rate mode             : Constant
Frame rate                  : 23.976 (24000/1001) FPS
Color space                 : YUV
Chroma subsampling          : 4:2:0
Bit depth                   : 8 bits
Scan type                   : Progressive
Bits/(Pixel*Frame)          : 0.103
Stream size                 : 803 MiB (76%)
Title                       : s01e03 Загублені у космосі / Lost in Space (2018) 720p [strife]
Writing library             : core 155 r2901 7d0ff22
Encoding settings           : cabac=1 / ref=5 / deblock=1:-3:-3 / analyse=0x3:0x113 / me=hex / subme=8 / psy=1 / psy_rd=1.00:0.15 / mixed_ref=1 / me_range=16 / chroma_me=1 / trellis=2 / 8x8dct=1 / cqm=0 / deadzone=21,11 / fast_pskip=0 / chroma_qp_offset=-2 / threads=20 / lookahead_threads=3 / sliced_threads=0 / nr=0 / decimate=1 / interlaced=0 / bluray_compat=0 / constrained_intra=0 / bframes=3 / b_pyramid=2 / b_adapt=1 / b_bias=0 / direct=3 / weightb=1 / open_gop=0 / weightp=2 / keyint=250 / keyint_min=23 / scenecut=40 / intra_refresh=0 / rc_lookahead=50 / rc=crf / mbtree=1 / crf=18.0 / qcomp=0.60 / qpmin=0 / qpmax=69 / qpstep=4 / ip_ratio=1.40 / aq=3:0.80
Language                    : English
Default                     : Yes
Forced                      : No
Color range                 : Limited
Matrix coefficients         : BT.709

Audio #1
ID                          : 2
Format                      : AC-3
Format/Info                 : Audio Coding 3
Codec ID                    : A_AC3
Duration                    : 55 min 40 s
Bit rate mode               : Constant
Bit rate                    : 192 kb/s
Channel(s)                  : 2 channels
Channel positions           : Front: L R
Sampling rate               : 48.0 kHz
Frame rate                  : 31.250 FPS (1536 SPF)
Bit depth                   : 16 bits
Compression mode            : Lossy
Stream size                 : 76.5 MiB (7%)
Title                       : DVO [DZUSKI.COM], 2.0 192 Kbps
Language                    : Ukrainian
Service kind                : Complete Main
Default                     : Yes
Forced                      : Yes

Audio #2
ID                          : 3
Format                      : E-AC-3
Format/Info                 : Enhanced Audio Coding 3
Format profile              : E-AC-3+Atmos / E-AC-3
Codec ID                    : A_EAC3
Duration                    : 54 min 46 s
Bit rate mode               : Constant
Bit rate                    : 448 kb/s
Channel(s)                  : 15 objects / 6 channels
Channel positions           : 15 objects / Front: L C R, Side: L R, LFE
Sampling rate               : 48.0 kHz
Frame rate                  : 187.500 FPS (256 SPF)
Compression mode            : Lossy
Stream size                 : 176 MiB (17%)
Title                       : Original, E- 5.1 448 Kbps
Language                    : English
Service kind                : Complete Main
Default                     : No
Forced                      : No

Text #1
ID                          : 4
Format                      : UTF-8
Codec ID                    : S_TEXT/UTF8
Codec ID/Info               : UTF-8 Plain Text
Duration                    : 53 min 12 s
Bit rate                    : 58 b/s
Count of elements           : 698
Stream size                 : 22.9 KiB (0%)
Title                       : English
Language                    : English
Default                     : No
Forced                      : No

Text #2
ID                          : 5
Format                      : UTF-8
Codec ID                    : S_TEXT/UTF8
Codec ID/Info               : UTF-8 Plain Text
Duration                    : 54 min 38 s
Bit rate                    : 47 b/s
Count of elements           : 607
Stream size                 : 18.8 KiB (0%)
Title                       : Spanish (European)
Language                    : Spanish
Default                     : No
Forced                      : No

Text #3
ID                          : 6
Format                      : UTF-8
Codec ID                    : S_TEXT/UTF8
Codec ID/Info               : UTF-8 Plain Text
Duration                    : 54 min 25 s
Bit rate                    : 44 b/s
Count of elements           : 563
Stream size                 : 17.9 KiB (0%)
Title                       : French
Language                    : French
Default                     : No
Forced                      : No

Text #4
ID                          : 7
Format                      : UTF-8
Codec ID                    : S_TEXT/UTF8
Codec ID/Info               : UTF-8 Plain Text
Duration                    : 54 min 25 s
Bit rate                    : 44 b/s
Count of elements           : 605
Stream size                 : 17.7 KiB (0%)
Title                       : Polish
Language                    : Polish
Default                     : No
Forced                      : No

Text #5
ID                          : 8
Format                      : UTF-8
Codec ID                    : S_TEXT/UTF8
Codec ID/Info               : UTF-8 Plain Text
Duration                    : 54 min 25 s
Bit rate                    : 47 b/s
Count of elements           : 605
Stream size                 : 18.8 KiB (0%)
Title                       : Portuguese
Language                    : Portuguese
Default                     : No
Forced                      : No
4 серія
Код:
Complete name               : s01e04.Lost.in.Space.2018.[Ukr,Eng]..720p.[Hurtom&Dzuski].
Format                      :
Format version              : Version 4 / Version 2
File size                   : 1.28 GiB
Duration                    : 1 h 0 min
Overall bit rate            : 3 018 kb/s
Movie name                  : s01e04 Загублені у космосі / Lost in Space (2018) [Ukr,Eng] 720p [Hurtom & Dzuski]
Released date               : 2018
Encoded date                : UTC 2018-05-13 18:44:33
Writing application         : v23.0.0 ('The Bride Said No') 64-bit
Writing library             : libebml v1.3.6 + v1.4.9
Cover                       : Yes
Comment                     : http://www.imdb.com/title/tt5232792/
Attachments                 : cover.jpg / OpenSans-Semibold.ttf
ARTIST                      : Молі Паркер / Molly Parker, Тобі Стівенс / Toby Stephens, Паркер Поузі / Parker Posey, Макс Дженкинс / Maxwell Jenkins, Тейлор Расселл / Taylor Russell, Міна Сандвол / Mina Sundwall, Ігнасіо Серричіо / Ignacio Serricchio, Амелія Берстін / Amelia Burstyn, Раза Джеффрі / Raza Jaffrey, Аджай Фрізе / Ajay Friese, Браян Стіл / Brian Steele та інші
DIRECTOR                    : Тім Соутем / Tim Southam, Дебора Чоу / Deborah Chow, Стівен Суржик / Stephen Surjik
GENRE                       : драма, наукова фантастика, трилер, пригодницький
SYNOPSIS                    : 2046 рік. Космічний корабель губиться в космосі і зазнає аварії на планеті, яка знаходиться на відстані кількох світлових років від запланованого місця призначення. Члени екіпажу, сім’я Робінсонів, змушені пристосуватися і вижити в нових умовах...
Url                         : https://toloka.to/t89533

Video
ID                          : 1
Format                      : AVC
Format/Info                 : Advanced Video Codec
Format profile              : [email protected]
Format settings             : CABAC / 5 Ref Frames
Format settings, CABAC      : Yes
Format settings, ReFrames   : 5 frames
Codec ID                    : V_MPEG4/ISO/AVC
Duration                    : 1 h 0 min
Bit rate                    : 2 381 kb/s
Width                       : 1 280 pixels
Height                      : 640 pixels
Display aspect ratio        : 2.000
Frame rate mode             : Constant
Frame rate                  : 23.976 (24000/1001) FPS
Color space                 : YUV
Chroma subsampling          : 4:2:0
Bit depth                   : 8 bits
Scan type                   : Progressive
Bits/(Pixel*Frame)          : 0.121
Stream size                 : 1.01 GiB (79%)
Title                       : s01e04 Загублені у космосі / Lost in Space (2018) 720p [webtiful]
Writing library             : core 155 r2901 7d0ff22
Encoding settings           : cabac=1 / ref=5 / deblock=1:0:0 / analyse=0x3:0x113 / me=hex / subme=8 / psy=1 / psy_rd=1.00:0.00 / mixed_ref=1 / me_range=16 / chroma_me=1 / trellis=2 / 8x8dct=1 / cqm=0 / deadzone=21,11 / fast_pskip=1 / chroma_qp_offset=-2 / threads=20 / lookahead_threads=3 / sliced_threads=0 / nr=0 / decimate=1 / interlaced=0 / bluray_compat=0 / constrained_intra=0 / bframes=3 / b_pyramid=2 / b_adapt=1 / b_bias=0 / direct=3 / weightb=1 / open_gop=0 / weightp=2 / keyint=240 / keyint_min=24 / scenecut=40 / intra_refresh=0 / rc_lookahead=50 / rc=crf / mbtree=1 / crf=18.0 / qcomp=0.60 / qpmin=0 / qpmax=69 / qpstep=4 / vbv_maxrate=62500 / vbv_bufsize=78125 / crf_max=0.0 / nal_hrd=none / filler=0 / ip_ratio=1.40 / aq=1:1.00
Language                    : English
Default                     : Yes
Forced                      : No
Color range                 : Limited
Color primaries             : BT.709
Transfer characteristics    : BT.709
Matrix coefficients         : BT.709

Audio #1
ID                          : 2
Format                      : MPEG Audio
Format version              : Version 1
Format profile              : Layer 3
Format settings             : Joint stereo
Codec ID                    : A_MPEG/L3
Codec ID/Hint               : MP3
Duration                    : 1 h 0 min
Bit rate mode               : Constant
Bit rate                    : 192 kb/s
Channel(s)                  : 2 channels
Sampling rate               : 44.1 kHz
Frame rate                  : 38.281 FPS (1152 SPF)
Compression mode            : Lossy
Stream size                 : 83.0 MiB (6%)
Title                       : DVO [DZUSKI.COM], MP3 192 Kbps
Language                    : Ukrainian
Default                     : Yes
Forced                      : Yes

Audio #2
ID                          : 3
Format                      : E-AC-3
Format/Info                 : Enhanced Audio Coding 3
Format profile              : E-AC-3+Atmos / E-AC-3
Codec ID                    : A_EAC3
Duration                    : 59 min 42 s
Bit rate mode               : Constant
Bit rate                    : 448 kb/s
Channel(s)                  : 15 objects / 6 channels
Channel positions           : 15 objects / Front: L C R, Side: L R, LFE
Sampling rate               : 48.0 kHz
Frame rate                  : 187.500 FPS (256 SPF)
Compression mode            : Lossy
Stream size                 : 191 MiB (15%)
Title                       : Original, E- 5.1 448 Kbps
Language                    : English
Service kind                : Complete Main
Default                     : No
Forced                      : No

Text #1
ID                          : 4
Format                      :
Codec ID                    : S_TEXT/
Codec ID/Info               : Advanced Sub Station Alpha
Duration                    : 57 min 36 s
Bit rate                    : 98 b/s
Count of elements           : 762
Compression mode            : Lossless
Stream size                 : 41.4 KiB (0%)
Title                       : English
Language                    : English
Default                     : No
Forced                      : No

Text #2
ID                          : 5
Format                      :
Codec ID                    : S_TEXT/
Codec ID/Info               : Advanced Sub Station Alpha
Duration                    : 59 min 35 s
Bit rate                    : 78 b/s
Count of elements           : 672
Compression mode            : Lossless
Stream size                 : 34.5 KiB (0%)
Title                       : German
Language                    : German
Default                     : No
Forced                      : No

Text #3
ID                          : 6
Format                      :
Codec ID                    : S_TEXT/
Codec ID/Info               : Advanced Sub Station Alpha
Duration                    : 59 min 21 s
Bit rate                    : 79 b/s
Count of elements           : 663
Compression mode            : Lossless
Stream size                 : 34.6 KiB (0%)
Title                       : French
Language                    : French
Default                     : No
Forced                      : No

Text #4
ID                          : 7
Format                      :
Codec ID                    : S_TEXT/
Codec ID/Info               : Advanced Sub Station Alpha
Duration                    : 59 min 33 s
Bit rate                    : 74 b/s
Count of elements           : 649
Compression mode            : Lossless
Stream size                 : 32.7 KiB (0%)
Title                       : Dutch
Language                    : Dutch
Default                     : No
Forced                      : No

Text #5
ID                          : 8
Format                      :
Codec ID                    : S_TEXT/
Codec ID/Info               : Advanced Sub Station Alpha
Duration                    : 59 min 21 s
Bit rate                    : 87 b/s
Count of elements           : 708
Compression mode            : Lossless
Stream size                 : 37.9 KiB (0%)
Title                       : Turkish
Language                    : Turkish
Default                     : No
Forced                      : No
5 серія
Код:
Complete name               : s01e05.Lost.in.Space.2018.[Ukr,Eng]..720p.[Hurtom&Dzuski].
Format                      :
Format version              : Version 4 / Version 2
File size                   : 887 MiB
Duration                    : 48 min 59 s
Overall bit rate            : 2 533 kb/s
Movie name                  : s01e05 Загублені у космосі / Lost in Space (2018) [Ukr,Eng] 720p [Hurtom & Dzuski]
Released date               : 2018
Encoded date                : UTC 2018-05-16 08:15:19
Writing application         : v23.0.0 ('The Bride Said No') 64-bit
Writing library             : libebml v1.3.6 + v1.4.9
Cover                       : Yes
Comment                     : http://www.imdb.com/title/tt5232792/
Attachments                 : cover.jpg
ARTIST                      : Молі Паркер / Molly Parker, Тобі Стівенс / Toby Stephens, Паркер Поузі / Parker Posey, Макс Дженкинс / Maxwell Jenkins, Тейлор Расселл / Taylor Russell, Міна Сандвол / Mina Sundwall, Ігнасіо Серричіо / Ignacio Serricchio, Амелія Берстін / Amelia Burstyn, Раза Джеффрі / Raza Jaffrey, Аджай Фрізе / Ajay Friese, Браян Стіл / Brian Steele та інші
DIRECTOR                    : Тім Соутем / Tim Southam, Дебора Чоу / Deborah Chow, Стівен Суржик / Stephen Surjik
GENRE                       : драма, наукова фантастика, трилер, пригодницький
SYNOPSIS                    : 2046 рік. Космічний корабель губиться в космосі і зазнає аварії на планеті, яка знаходиться на відстані кількох світлових років від запланованого місця призначення. Члени екіпажу, сім’я Робінсонів, змушені пристосуватися і вижити в нових умовах...
Url                         : https://toloka.to/t89533

Video
ID                          : 1
Format                      : AVC
Format/Info                 : Advanced Video Codec
Format profile              : [email protected]
Format settings             : CABAC / 5 Ref Frames
Format settings, CABAC      : Yes
Format settings, ReFrames   : 5 frames
Codec ID                    : V_MPEG4/ISO/AVC
Duration                    : 48 min 59 s
Bit rate                    : 1 898 kb/s
Width                       : 1 280 pixels
Height                      : 640 pixels
Display aspect ratio        : 2.000
Frame rate mode             : Constant
Frame rate                  : 23.976 (24000/1001) FPS
Color space                 : YUV
Chroma subsampling          : 4:2:0
Bit depth                   : 8 bits
Scan type                   : Progressive
Bits/(Pixel*Frame)          : 0.097
Stream size                 : 665 MiB (75%)
Title                       : s01e05 Загублені у космосі / Lost in Space (2018) 720p [strife]
Writing library             : core 155 r2901 7d0ff22
Encoding settings           : cabac=1 / ref=5 / deblock=1:-3:-3 / analyse=0x3:0x113 / me=umh / subme=8 / psy=1 / psy_rd=1.00:0.15 / mixed_ref=1 / me_range=16 / chroma_me=1 / trellis=2 / 8x8dct=1 / cqm=0 / deadzone=21,11 / fast_pskip=0 / chroma_qp_offset=-2 / threads=12 / lookahead_threads=2 / sliced_threads=0 / nr=0 / decimate=1 / interlaced=0 / bluray_compat=0 / constrained_intra=0 / bframes=3 / b_pyramid=2 / b_adapt=2 / b_bias=0 / direct=3 / weightb=1 / open_gop=0 / weightp=2 / keyint=240 / keyint_min=23 / scenecut=40 / intra_refresh=0 / rc_lookahead=50 / rc=crf / mbtree=1 / crf=18.0 / qcomp=0.60 / qpmin=0 / qpmax=69 / qpstep=4 / ip_ratio=1.40 / aq=3:0.80
Language                    : English
Default                     : Yes
Forced                      : No

Audio #1
ID                          : 2
Format                      : AC-3
Format/Info                 : Audio Coding 3
Codec ID                    : A_AC3
Duration                    : 48 min 58 s
Bit rate mode               : Constant
Bit rate                    : 192 kb/s
Channel(s)                  : 2 channels
Channel positions           : Front: L R
Sampling rate               : 48.0 kHz
Frame rate                  : 31.250 FPS (1536 SPF)
Bit depth                   : 16 bits
Compression mode            : Lossy
Stream size                 : 67.3 MiB (8%)
Title                       : DVO [DZUSKI.COM], 2.0 192 Kbps
Language                    : Ukrainian
Service kind                : Complete Main
Default                     : Yes
Forced                      : Yes

Audio #2
ID                          : 3
Format                      : E-AC-3
Format/Info                 : Enhanced Audio Coding 3
Format profile              : E-AC-3+Atmos / E-AC-3
Codec ID                    : A_EAC3
Duration                    : 48 min 8 s
Bit rate mode               : Constant
Bit rate                    : 448 kb/s
Channel(s)                  : 15 objects / 6 channels
Channel positions           : 15 objects / Front: L C R, Side: L R, LFE
Sampling rate               : 48.0 kHz
Frame rate                  : 187.500 FPS (256 SPF)
Compression mode            : Lossy
Stream size                 : 154 MiB (17%)
Title                       : Original, E- 5.1 448 Kbps
Language                    : English
Service kind                : Complete Main
Default                     : No
Forced                      : No

Text #1
ID                          : 4
Format                      : UTF-8
Codec ID                    : S_TEXT/UTF8
Codec ID/Info               : UTF-8 Plain Text
Duration                    : 46 min 0 s
Bit rate                    : 47 b/s
Count of elements           : 543
Stream size                 : 16.0 KiB (0%)
Title                       : English
Language                    : English
Default                     : No
Forced                      : No

Text #2
ID                          : 5
Format                      : UTF-8
Codec ID                    : S_TEXT/UTF8
Codec ID/Info               : UTF-8 Plain Text
Duration                    : 47 min 47 s
Bit rate                    : 34 b/s
Count of elements           : 455
Stream size                 : 12.1 KiB (0%)
Title                       : Portuguese (Brazilian)
Language                    : Portuguese
Default                     : No
Forced                      : No

Text #3
ID                          : 6
Format                      : UTF-8
Codec ID                    : S_TEXT/UTF8
Codec ID/Info               : UTF-8 Plain Text
Duration                    : 47 min 46 s
Bit rate                    : 38 b/s
Count of elements           : 421
Stream size                 : 13.4 KiB (0%)
Title                       : French
Language                    : French
Default                     : No
Forced                      : No

Text #4
ID                          : 7
Format                      : UTF-8
Codec ID                    : S_TEXT/UTF8
Codec ID/Info               : UTF-8 Plain Text
Duration                    : 48 min 1 s
Bit rate                    : 36 b/s
Count of elements           : 439
Stream size                 : 13.0 KiB (0%)
Title                       : German
Language                    : German
Default                     : No
Forced                      : No

Text #5
ID                          : 8
Format                      : UTF-8
Codec ID                    : S_TEXT/UTF8
Codec ID/Info               : UTF-8 Plain Text
Duration                    : 47 min 47 s
Bit rate                    : 37 b/s
Count of elements           : 452
Stream size                 : 13.2 KiB (0%)
Title                       : Italian
Language                    : Italian
Default                     : No
Forced                      : No
6 серія
Код:
Complete name               : s01e06.Lost.in.Space.2018.[Ukr,Eng]..720p.[Hurtom&Dzuski].
Format                      :
Format version              : Version 4 / Version 2
File size                   : 1.24 GiB
Duration                    : 1 h 5 min
Overall bit rate            : 2 715 kb/s
Movie name                  : s01e06 Загублені у космосі / Lost in Space (2018) [Ukr,Eng] 720p [Hurtom & Dzuski]
Released date               : 2018
Encoded date                : UTC 2018-05-31 12:40:40
Writing application         : v23.0.0 ('The Bride Said No') 64-bit
Writing library             : libebml v1.3.6 + v1.4.9
Cover                       : Yes
Comment                     : http://www.imdb.com/title/tt5232792/
Attachments                 : cover.jpg / OpenSans-Semibold.ttf
ARTIST                      : Молі Паркер / Molly Parker, Тобі Стівенс / Toby Stephens, Паркер Поузі / Parker Posey, Макс Дженкинс / Maxwell Jenkins, Тейлор Расселл / Taylor Russell, Міна Сандвол / Mina Sundwall, Ігнасіо Серричіо / Ignacio Serricchio, Амелія Берстін / Amelia Burstyn, Раза Джеффрі / Raza Jaffrey, Аджай Фрізе / Ajay Friese, Браян Стіл / Brian Steele та інші
DIRECTOR                    : Тім Соутем / Tim Southam, Дебора Чоу / Deborah Chow, Стівен Суржик / Stephen Surjik
GENRE                       : драма, наукова фантастика, трилер, пригодницький
SYNOPSIS                    : 2046 рік. Космічний корабель губиться в космосі і зазнає аварії на планеті, яка знаходиться на відстані кількох світлових років від запланованого місця призначення. Члени екіпажу, сім’я Робінсонів, змушені пристосуватися і вижити в нових умовах...
Url                         : https://toloka.to/t89533

Video
ID                          : 1
Format                      : AVC
Format/Info                 : Advanced Video Codec
Format profile              : [email protected]
Format settings             : CABAC / 5 Ref Frames
Format settings, CABAC      : Yes
Format settings, ReFrames   : 5 frames
Codec ID                    : V_MPEG4/ISO/AVC
Duration                    : 1 h 5 min
Bit rate                    : 2 077 kb/s
Width                       : 1 280 pixels
Height                      : 640 pixels
Display aspect ratio        : 2.000
Frame rate mode             : Constant
Frame rate                  : 23.976 (24000/1001) FPS
Color space                 : YUV
Chroma subsampling          : 4:2:0
Bit depth                   : 8 bits
Scan type                   : Progressive
Bits/(Pixel*Frame)          : 0.106
Stream size                 : 974 MiB (77%)
Title                       : s01e06 Загублені у космосі / Lost in Space (2018) 720p [WEBTiFUL]
Writing library             : core 155 r2901 7d0ff22
Encoding settings           : cabac=1 / ref=5 / deblock=1:0:0 / analyse=0x3:0x113 / me=hex / subme=8 / psy=1 / psy_rd=1.00:0.00 / mixed_ref=1 / me_range=16 / chroma_me=1 / trellis=2 / 8x8dct=1 / cqm=0 / deadzone=21,11 / fast_pskip=1 / chroma_qp_offset=-2 / threads=20 / lookahead_threads=3 / sliced_threads=0 / nr=0 / decimate=1 / interlaced=0 / bluray_compat=0 / constrained_intra=0 / bframes=3 / b_pyramid=2 / b_adapt=1 / b_bias=0 / direct=3 / weightb=1 / open_gop=0 / weightp=2 / keyint=240 / keyint_min=24 / scenecut=40 / intra_refresh=0 / rc_lookahead=50 / rc=crf / mbtree=1 / crf=18.0 / qcomp=0.60 / qpmin=0 / qpmax=69 / qpstep=4 / vbv_maxrate=62500 / vbv_bufsize=78125 / crf_max=0.0 / nal_hrd=none / filler=0 / ip_ratio=1.40 / aq=1:1.00
Language                    : English
Default                     : Yes
Forced                      : No
Color range                 : Limited
Color primaries             : BT.709
Transfer characteristics    : BT.709
Matrix coefficients         : BT.709

Audio #1
ID                          : 2
Format                      : AC-3
Format/Info                 : Audio Coding 3
Codec ID                    : A_AC3
Duration                    : 1 h 5 min
Bit rate mode               : Constant
Bit rate                    : 192 kb/s
Channel(s)                  : 2 channels
Channel positions           : Front: L R
Sampling rate               : 48.0 kHz
Frame rate                  : 31.250 FPS (1536 SPF)
Bit depth                   : 16 bits
Compression mode            : Lossy
Stream size                 : 90.0 MiB (7%)
Title                       : DVO [DZUSKI.COM], 2.0 192 Kbps
Language                    : Ukrainian
Service kind                : Complete Main
Default                     : Yes
Forced                      : Yes

Audio #2
ID                          : 3
Format                      : E-AC-3
Format/Info                 : Enhanced Audio Coding 3
Format profile              : E-AC-3+Atmos / E-AC-3
Codec ID                    : A_EAC3
Duration                    : 1 h 4 min
Bit rate mode               : Constant
Bit rate                    : 448 kb/s
Channel(s)                  : 15 objects / 6 channels
Channel positions           : 15 objects / Front: L C R, Side: L R, LFE
Sampling rate               : 48.0 kHz
Frame rate                  : 187.500 FPS (256 SPF)
Compression mode            : Lossy
Stream size                 : 207 MiB (16%)
Title                       : Original, E- 5.1 448 Kbps
Language                    : English
Service kind                : Complete Main
Default                     : No
Forced                      : No

Text #1
ID                          : 4
Format                      :
Codec ID                    : S_TEXT/
Codec ID/Info               : Advanced Sub Station Alpha
Duration                    : 1 h 3 min
Bit rate                    : 99 b/s
Count of elements           : 837
Compression mode            : Lossless
Stream size                 : 46.2 KiB (0%)
Title                       : English
Language                    : English
Default                     : No
Forced                      : No

Text #2
ID                          : 5
Format                      :
Codec ID                    : S_TEXT/
Codec ID/Info               : Advanced Sub Station Alpha
Duration                    : 1 h 4 min
Bit rate                    : 80 b/s
Count of elements           : 714
Compression mode            : Lossless
Stream size                 : 38.3 KiB (0%)
Title                       : German
Language                    : German
Default                     : No
Forced                      : No

Text #3
ID                          : 6
Format                      :
Codec ID                    : S_TEXT/
Codec ID/Info               : Advanced Sub Station Alpha
Duration                    : 1 h 4 min
Bit rate                    : 80 b/s
Count of elements           : 685
Compression mode            : Lossless
Stream size                 : 38.0 KiB (0%)
Title                       : French
Language                    : French
Default                     : No
Forced                      : No

Text #4
ID                          : 7
Format                      :
Codec ID                    : S_TEXT/
Codec ID/Info               : Advanced Sub Station Alpha
Duration                    : 1 h 4 min
Bit rate                    : 76 b/s
Count of elements           : 680
Compression mode            : Lossless
Stream size                 : 35.9 KiB (0%)
Title                       : Dutch
Language                    : Dutch
Default                     : No
Forced                      : No

Text #5
ID                          : 8
Format                      :
Codec ID                    : S_TEXT/
Codec ID/Info               : Advanced Sub Station Alpha
Duration                    : 1 h 4 min
Bit rate                    : 89 b/s
Count of elements           : 738
Compression mode            : Lossless
Stream size                 : 42.2 KiB (0%)
Title                       : Turkish
Language                    : Turkish
Default                     : No
Forced                      : No
7 серія
Код:
Video
ID                          : 1
Format                      : AVC
Format/Info                 : Advanced Video Codec
Format profile              : [email protected]
Format settings             : CABAC / 5 Ref Frames
Format settings, CABAC      : Yes
Format settings, ReFrames   : 5 frames
Codec ID                    : V_MPEG4/ISO/AVC
Duration                    : 52 min 49 s
Bit rate                    : 2 582 kb/s
Width                       : 1 280 pixels
Height                      : 640 pixels
Display aspect ratio        : 2.000
Frame rate mode             : Constant
Frame rate                  : 23.976 (24000/1001) FPS
Color space                 : YUV
Chroma subsampling          : 4:2:0
Bit depth                   : 8 bits
Scan type                   : Progressive
Bits/(Pixel*Frame)          : 0.131
Stream size                 : 976 MiB (80%)
Title                       : s01e07 Загублені у космосі / Lost in Space (2018) 720p [STRiFE]
Writing library             : core 155 r2901 7d0ff22
Encoding settings           : cabac=1 / ref=5 / deblock=1:-3:-3 / analyse=0x3:0x113 / me=hex / subme=8 / psy=1 / psy_rd=1.00:0.15 / mixed_ref=1 / me_range=16 / chroma_me=1 / trellis=2 / 8x8dct=1 / cqm=0 / deadzone=21,11 / fast_pskip=0 / chroma_qp_offset=-2 / threads=20 / lookahead_threads=3 / sliced_threads=0 / nr=0 / decimate=1 / interlaced=0 / bluray_compat=0 / constrained_intra=0 / bframes=3 / b_pyramid=2 / b_adapt=1 / b_bias=0 / direct=3 / weightb=1 / open_gop=0 / weightp=2 / keyint=250 / keyint_min=23 / scenecut=40 / intra_refresh=0 / rc_lookahead=50 / rc=crf / mbtree=1 / crf=18.0 / qcomp=0.60 / qpmin=0 / qpmax=69 / qpstep=4 / ip_ratio=1.40 / aq=3:0.80
Language                    : English
Default                     : Yes
Forced                      : No
Color range                 : Limited
Matrix coefficients         : BT.709

Audio #1
ID                          : 2
Format                      : AC-3
Format/Info                 : Audio Coding 3
Codec ID                    : A_AC3
Duration                    : 51 min 58 s
Bit rate mode               : Constant
Bit rate                    : 192 kb/s
Channel(s)                  : 2 channels
Channel positions           : Front: L R
Sampling rate               : 48.0 kHz
Frame rate                  : 31.250 FPS (1536 SPF)
Bit depth                   : 16 bits
Compression mode            : Lossy
Stream size                 : 71.4 MiB (6%)
Title                       : DVO [DZUSKI.COM], 2.0 192 Kbps
Language                    : Ukrainian
Service kind                : Complete Main
Default                     : Yes
Forced                      : Yes

Audio #2
ID                          : 3
Format                      : E-AC-3
Format/Info                 : Enhanced Audio Coding 3
Format profile              : E-AC-3+Atmos / E-AC-3
Codec ID                    : A_EAC3
Duration                    : 51 min 58 s
Bit rate mode               : Constant
Bit rate                    : 448 kb/s
Channel(s)                  : 15 objects / 6 channels
Channel positions           : 15 objects / Front: L C R, Side: L R, LFE
Sampling rate               : 48.0 kHz
Frame rate                  : 187.500 FPS (256 SPF)
Compression mode            : Lossy
Stream size                 : 167 MiB (14%)
Title                       : Original, E- 5.1 448 Kbps
Language                    : English
Service kind                : Complete Main
Default                     : No
Forced                      : No

Text #1
ID                          : 4
Format                      : UTF-8
Codec ID                    : S_TEXT/UTF8
Codec ID/Info               : UTF-8 Plain Text
Duration                    : 50 min 24 s
Bit rate                    : 49 b/s
Count of elements           : 615
Stream size                 : 18.3 KiB (0%)
Title                       : English
Language                    : English
Default                     : No
Forced                      : No

Text #2
ID                          : 5
Format                      : UTF-8
Codec ID                    : S_TEXT/UTF8
Codec ID/Info               : UTF-8 Plain Text
Duration                    : 50 min 20 s
Bit rate                    : 35 b/s
Count of elements           : 458
Stream size                 : 13.3 KiB (0%)
Title                       : Dutch
Language                    : Dutch
Default                     : No
Forced                      : No

Text #3
ID                          : 6
Format                      : UTF-8
Codec ID                    : S_TEXT/UTF8
Codec ID/Info               : UTF-8 Plain Text
Duration                    : 51 min 50 s
Bit rate                    : 37 b/s
Count of elements           : 507
Stream size                 : 14.4 KiB (0%)
Title                       : Spanish (European)
Language                    : Spanish
Default                     : No
Forced                      : No

Text #4
ID                          : 7
Format                      : UTF-8
Codec ID                    : S_TEXT/UTF8
Codec ID/Info               : UTF-8 Plain Text
Duration                    : 51 min 35 s
Bit rate                    : 38 b/s
Count of elements           : 461
Stream size                 : 14.5 KiB (0%)
Title                       : French
Language                    : French
Default                     : No
Forced                      : No

Text #5
ID                          : 8
Format                      : UTF-8
Codec ID                    : S_TEXT/UTF8
Codec ID/Info               : UTF-8 Plain Text
Duration                    : 51 min 52 s
Bit rate                    : 37 b/s
Count of elements           : 480
Stream size                 : 14.3 KiB (0%)
Title                       : German
Language                    : German
Default                     : No
Forced                      : No
8 серія
Код:
Video
ID                          : 1
Format                      : AVC
Format/Info                 : Advanced Video Codec
Format profile              : [email protected]
Format settings             : CABAC / 5 Ref Frames
Format settings, CABAC      : Yes
Format settings, ReFrames   : 5 frames
Codec ID                    : V_MPEG4/ISO/AVC
Duration                    : 57 min 49 s
Bit rate                    : 1 880 kb/s
Width                       : 1 280 pixels
Height                      : 640 pixels
Display aspect ratio        : 2.000
Frame rate mode             : Constant
Frame rate                  : 23.976 (24000/1001) FPS
Color space                 : YUV
Chroma subsampling          : 4:2:0
Bit depth                   : 8 bits
Scan type                   : Progressive
Bits/(Pixel*Frame)          : 0.096
Stream size                 : 778 MiB (75%)
Title                       : s01e08 Загублені у космосі / Lost in Space (2018) 720p [STRiFE]
Writing library             : core 155 r2901 7d0ff22
Encoding settings           : cabac=1 / ref=5 / deblock=1:-3:-3 / analyse=0x3:0x113 / me=umh / subme=8 / psy=1 / psy_rd=1.00:0.15 / mixed_ref=1 / me_range=16 / chroma_me=1 / trellis=2 / 8x8dct=1 / cqm=0 / deadzone=21,11 / fast_pskip=0 / chroma_qp_offset=-2 / threads=20 / lookahead_threads=3 / sliced_threads=0 / nr=0 / decimate=1 / interlaced=0 / bluray_compat=0 / constrained_intra=0 / bframes=3 / b_pyramid=2 / b_adapt=2 / b_bias=0 / direct=3 / weightb=1 / open_gop=0 / weightp=2 / keyint=240 / keyint_min=23 / scenecut=40 / intra_refresh=0 / rc_lookahead=50 / rc=crf / mbtree=1 / crf=18.0 / qcomp=0.60 / qpmin=0 / qpmax=69 / qpstep=4 / ip_ratio=1.40 / aq=3:0.80
Language                    : English
Default                     : Yes
Forced                      : No

Audio #1
ID                          : 2
Format                      : AC-3
Format/Info                 : Audio Coding 3
Codec ID                    : A_AC3
Duration                    : 56 min 58 s
Bit rate mode               : Constant
Bit rate                    : 192 kb/s
Channel(s)                  : 2 channels
Channel positions           : Front: L R
Sampling rate               : 48.0 kHz
Frame rate                  : 31.250 FPS (1536 SPF)
Bit depth                   : 16 bits
Compression mode            : Lossy
Stream size                 : 78.2 MiB (8%)
Title                       : DVO [DZUSKI.COM], 2.0 192 Kbps
Language                    : Ukrainian
Service kind                : Complete Main
Default                     : Yes
Forced                      : Yes

Audio #2
ID                          : 3
Format                      : E-AC-3
Format/Info                 : Enhanced Audio Coding 3
Format profile              : E-AC-3+Atmos / E-AC-3
Codec ID                    : A_EAC3
Duration                    : 56 min 58 s
Bit rate mode               : Constant
Bit rate                    : 448 kb/s
Channel(s)                  : 15 objects / 6 channels
Channel positions           : 15 objects / Front: L C R, Side: L R, LFE
Sampling rate               : 48.0 kHz
Frame rate                  : 187.500 FPS (256 SPF)
Compression mode            : Lossy
Stream size                 : 183 MiB (18%)
Title                       : Original, E- 5.1 448 Kbps
Language                    : English
Service kind                : Complete Main
Default                     : No
Forced                      : No

Text #1
ID                          : 4
Format                      : UTF-8
Codec ID                    : S_TEXT/UTF8
Codec ID/Info               : UTF-8 Plain Text
Duration                    : 15 s 390 ms
Bit rate                    : 88 b/s
Count of elements           : 7
Stream size                 : 170 Bytes (0%)
Title                       : Eng Forced
Language                    : English
Default                     : No
Forced                      : Yes

Text #2
ID                          : 5
Format                      : UTF-8
Codec ID                    : S_TEXT/UTF8
Codec ID/Info               : UTF-8 Plain Text
Duration                    : 55 min 24 s
Bit rate                    : 69 b/s
Count of elements           : 809
Stream size                 : 28.1 KiB (0%)
Title                       : Eng full
Language                    : English
Default                     : No
Forced                      : No

Text #3
ID                          : 6
Format                      : UTF-8
Codec ID                    : S_TEXT/UTF8
Codec ID/Info               : UTF-8 Plain Text
Duration                    : 56 min 43 s
Bit rate                    : 55 b/s
Count of elements           : 705
Stream size                 : 23.1 KiB (0%)
Title                       : Spanish (European)
Language                    : Spanish
Default                     : No
Forced                      : No

Text #4
ID                          : 7
Format                      : UTF-8
Codec ID                    : S_TEXT/UTF8
Codec ID/Info               : UTF-8 Plain Text
Duration                    : 56 min 30 s
Bit rate                    : 55 b/s
Count of elements           : 668
Stream size                 : 23.0 KiB (0%)
Title                       : French
Language                    : French
Default                     : No
Forced                      : No

Text #5
ID                          : 8
Format                      : UTF-8
Codec ID                    : S_TEXT/UTF8
Codec ID/Info               : UTF-8 Plain Text
Duration                    : 56 min 30 s
Bit rate                    : 54 b/s
Count of elements           : 696
Stream size                 : 22.5 KiB (0%)
Title                       : Polish
Language                    : Polish
Default                     : No
Forced                      : No

Text #6
ID                          : 9
Format                      : UTF-8
Codec ID                    : S_TEXT/UTF8
Codec ID/Info               : UTF-8 Plain Text
Duration                    : 56 min 30 s
Bit rate                    : 55 b/s
Count of elements           : 702
Stream size                 : 23.2 KiB (0%)
Title                       : Portuguese
Language                    : Portuguese
Default                     : No
Forced                      : No
9 серія
Код:
Video
ID                          : 1
Format                      : AVC
Format/Info                 : Advanced Video Codec
Format profile              : [email protected]
Format settings             : CABAC / 5 Ref Frames
Format settings, CABAC      : Yes
Format settings, ReFrames   : 5 frames
Codec ID                    : V_MPEG4/ISO/AVC
Duration                    : 47 min 55 s
Bit rate                    : 1 991 kb/s
Width                       : 1 280 pixels
Height                      : 640 pixels
Display aspect ratio        : 2.000
Frame rate mode             : Constant
Frame rate                  : 23.976 (24000/1001) FPS
Color space                 : YUV
Chroma subsampling          : 4:2:0
Bit depth                   : 8 bits
Scan type                   : Progressive
Bits/(Pixel*Frame)          : 0.101
Stream size                 : 683 MiB (76%)
Title                       : s01e09 Загублені у космосі / Lost in Space (2018) 720p [STRiFE]
Writing library             : core 155 r2901 7d0ff22
Encoding settings           : cabac=1 / ref=5 / deblock=1:-3:-3 / analyse=0x3:0x113 / me=hex / subme=8 / psy=1 / psy_rd=1.00:0.15 / mixed_ref=1 / me_range=16 / chroma_me=1 / trellis=2 / 8x8dct=1 / cqm=0 / deadzone=21,11 / fast_pskip=0 / chroma_qp_offset=-2 / threads=20 / lookahead_threads=3 / sliced_threads=0 / nr=0 / decimate=1 / interlaced=0 / bluray_compat=0 / constrained_intra=0 / bframes=3 / b_pyramid=2 / b_adapt=1 / b_bias=0 / direct=3 / weightb=1 / open_gop=0 / weightp=2 / keyint=250 / keyint_min=23 / scenecut=40 / intra_refresh=0 / rc_lookahead=50 / rc=crf / mbtree=1 / crf=18.0 / qcomp=0.60 / qpmin=0 / qpmax=69 / qpstep=4 / ip_ratio=1.40 / aq=3:0.80
Language                    : English
Default                     : Yes
Forced                      : No
Color range                 : Limited
Matrix coefficients         : BT.709

Audio #1
ID                          : 2
Format                      : AC-3
Format/Info                 : Audio Coding 3
Codec ID                    : A_AC3
Duration                    : 47 min 3 s
Bit rate mode               : Constant
Bit rate                    : 192 kb/s
Channel(s)                  : 2 channels
Channel positions           : Front: L R
Sampling rate               : 48.0 kHz
Frame rate                  : 31.250 FPS (1536 SPF)
Bit depth                   : 16 bits
Compression mode            : Lossy
Stream size                 : 64.6 MiB (7%)
Title                       : DVO [DZUSKI.COM], 2.0 192 Kbps
Language                    : Ukrainian
Service kind                : Complete Main
Default                     : Yes
Forced                      : Yes

Audio #2
ID                          : 3
Format                      : E-AC-3
Format/Info                 : Enhanced Audio Coding 3
Format profile              : E-AC-3+Atmos / E-AC-3
Codec ID                    : A_EAC3
Duration                    : 47 min 4 s
Bit rate mode               : Constant
Bit rate                    : 448 kb/s
Channel(s)                  : 15 objects / 6 channels
Channel positions           : 15 objects / Front: L C R, Side: L R, LFE
Sampling rate               : 48.0 kHz
Frame rate                  : 187.500 FPS (256 SPF)
Compression mode            : Lossy
Stream size                 : 151 MiB (17%)
Title                       : Original, E- 5.1 448 Kbps
Language                    : English
Service kind                : Complete Main
Default                     : No
Forced                      : No

Text #1
ID                          : 4
Format                      : UTF-8
Codec ID                    : S_TEXT/UTF8
Codec ID/Info               : UTF-8 Plain Text
Duration                    : 23 min 2 s
Bit rate                    : 1 b/s
Count of elements           : 14
Stream size                 : 224 Bytes (0%)
Title                       : Eng Forced
Language                    : English
Default                     : No
Forced                      : No

Text #2
ID                          : 5
Format                      : UTF-8
Codec ID                    : S_TEXT/UTF8
Codec ID/Info               : UTF-8 Plain Text
Duration                    : 44 min 55 s
Bit rate                    : 59 b/s
Count of elements           : 558
Stream size                 : 19.6 KiB (0%)
Title                       : Eng full
Language                    : English
Default                     : No
Forced                      : No

Text #3
ID                          : 6
Format                      : UTF-8
Codec ID                    : S_TEXT/UTF8
Codec ID/Info               : UTF-8 Plain Text
Duration                    : 46 min 42 s
Bit rate                    : 42 b/s
Count of elements           : 450
Stream size                 : 14.4 KiB (0%)
Title                       : Dutch
Language                    : Dutch
Default                     : No
Forced                      : No

Text #4
ID                          : 7
Format                      : UTF-8
Codec ID                    : S_TEXT/UTF8
Codec ID/Info               : UTF-8 Plain Text
Duration                    : 46 min 56 s
Bit rate                    : 46 b/s
Count of elements           : 499
Stream size                 : 16.0 KiB (0%)
Title                       : Spanish (European)
Language                    : Spanish
Default                     : No
Forced                      : No

Text #5
ID                          : 8
Format                      : UTF-8
Codec ID                    : S_TEXT/UTF8
Codec ID/Info               : UTF-8 Plain Text
Duration                    : 46 min 42 s
Bit rate                    : 46 b/s
Count of elements           : 457
Stream size                 : 16.1 KiB (0%)
Title                       : French
Language                    : French
Default                     : No
Forced                      : No

Text #6
ID                          : 9
Format                      : UTF-8
Codec ID                    : S_TEXT/UTF8
Codec ID/Info               : UTF-8 Plain Text
Duration                    : 46 min 42 s
Bit rate                    : 45 b/s
Count of elements           : 473
Stream size                 : 15.6 KiB (0%)
Title                       : German
Language                    : German
Default                     : No
Forced                      : No
10 серія
Код:
Video
ID                          : 1
Format                      : AVC
Format/Info                 : Advanced Video Codec
Format profile              : [email protected]
Format settings             : CABAC / 5 Ref Frames
Format settings, CABAC      : Yes
Format settings, ReFrames   : 5 frames
Codec ID                    : V_MPEG4/ISO/AVC
Duration                    : 51 min 23 s
Bit rate                    : 2 216 kb/s
Width                       : 1 280 pixels
Height                      : 640 pixels
Display aspect ratio        : 2.000
Frame rate mode             : Constant
Frame rate                  : 23.976 (24000/1001) FPS
Color space                 : YUV
Chroma subsampling          : 4:2:0
Bit depth                   : 8 bits
Scan type                   : Progressive
Bits/(Pixel*Frame)          : 0.113
Stream size                 : 814 MiB (78%)
Title                       : s01e10 Загублені у космосі / Lost in Space (2018) 720p [STRiFE]
Writing library             : core 155 r2901 7d0ff22
Encoding settings           : cabac=1 / ref=5 / deblock=1:-3:-3 / analyse=0x3:0x113 / me=umh / subme=8 / psy=1 / psy_rd=1.00:0.15 / mixed_ref=1 / me_range=16 / chroma_me=1 / trellis=2 / 8x8dct=1 / cqm=0 / deadzone=21,11 / fast_pskip=0 / chroma_qp_offset=-2 / threads=20 / lookahead_threads=3 / sliced_threads=0 / nr=0 / decimate=1 / interlaced=0 / bluray_compat=0 / constrained_intra=0 / bframes=3 / b_pyramid=2 / b_adapt=2 / b_bias=0 / direct=3 / weightb=1 / open_gop=0 / weightp=2 / keyint=240 / keyint_min=23 / scenecut=40 / intra_refresh=0 / rc_lookahead=50 / rc=crf / mbtree=1 / crf=18.0 / qcomp=0.60 / qpmin=0 / qpmax=69 / qpstep=4 / ip_ratio=1.40 / aq=3:0.80
Language                    : English
Default                     : Yes
Forced                      : No

Audio #1
ID                          : 2
Format                      : AC-3
Format/Info                 : Audio Coding 3
Codec ID                    : A_AC3
Duration                    : 50 min 32 s
Bit rate mode               : Constant
Bit rate                    : 192 kb/s
Channel(s)                  : 2 channels
Channel positions           : Front: L R
Sampling rate               : 48.0 kHz
Frame rate                  : 31.250 FPS (1536 SPF)
Bit depth                   : 16 bits
Compression mode            : Lossy
Stream size                 : 69.4 MiB (7%)
Title                       : DVO [DZUSKI.COM], 2.0 192 Kbps
Language                    : Ukrainian
Service kind                : Complete Main
Default                     : Yes
Forced                      : Yes

Audio #2
ID                          : 3
Format                      : E-AC-3
Format/Info                 : Enhanced Audio Coding 3
Format profile              : E-AC-3+Atmos / E-AC-3
Codec ID                    : A_EAC3
Duration                    : 50 min 32 s
Bit rate mode               : Constant
Bit rate                    : 448 kb/s
Channel(s)                  : 15 objects / 6 channels
Channel positions           : 15 objects / Front: L C R, Side: L R, LFE
Sampling rate               : 48.0 kHz
Frame rate                  : 187.500 FPS (256 SPF)
Compression mode            : Lossy
Stream size                 : 162 MiB (15%)
Title                       : Original, E- 5.1 448 Kbps
Language                    : English
Service kind                : Complete Main
Default                     : No
Forced                      : No

Text #1
ID                          : 4
Format                      : UTF-8
Codec ID                    : S_TEXT/UTF8
Codec ID/Info               : UTF-8 Plain Text
Duration                    : 48 min 58 s
Bit rate                    : 55 b/s
Count of elements           : 583
Stream size                 : 19.9 KiB (0%)
Title                       : Eng full
Language                    : English
Default                     : No
Forced                      : No

Text #2
ID                          : 5
Format                      : UTF-8
Codec ID                    : S_TEXT/UTF8
Codec ID/Info               : UTF-8 Plain Text
Duration                    : 50 min 25 s
Bit rate                    : 44 b/s
Count of elements           : 507
Stream size                 : 16.4 KiB (0%)
Title                       : Spanish (European)
Language                    : Spanish
Default                     : No
Forced                      : No

Text #3
ID                          : 6
Format                      : UTF-8
Codec ID                    : S_TEXT/UTF8
Codec ID/Info               : UTF-8 Plain Text
Duration                    : 50 min 11 s
Bit rate                    : 44 b/s
Count of elements           : 468
Stream size                 : 16.3 KiB (0%)
Title                       : French
Language                    : French
Default                     : No
Forced                      : No

Text #4
ID                          : 7
Format                      : UTF-8
Codec ID                    : S_TEXT/UTF8
Codec ID/Info               : UTF-8 Plain Text
Duration                    : 50 min 11 s
Bit rate                    : 43 b/s
Count of elements           : 503
Stream size                 : 15.8 KiB (0%)
Title                       : Polish
Language                    : Polish
Default                     : No
Forced                      : No

Text #5
ID                          : 8
Format                      : UTF-8
Codec ID                    : S_TEXT/UTF8
Codec ID/Info               : UTF-8 Plain Text
Duration                    : 50 min 11 s
Bit rate                    : 42 b/s
Count of elements           : 495
Stream size                 : 15.7 KiB (0%)
Title                       : Portuguese
Language                    : Portuguese
Default                     : No
Forced                      : No


Джерело: & DZUSKI.COM &


Авторський реліз (завантажувати можна без реєстрації)
 Трекер:    Зареєстрований   

Завантажити / скачати серіал українською



відео для новачків



 Зареєстрований:   2018-06-18 12:25
 Розмір:   11.47 GB 
 Оцінка серіалу:   8.8/10 (Голосів: 57)
   
romeo_m 
Новенький


З нами з: 20.01.10
Востаннє: 20.10.18
Повідомлень: 15

2018-04-23 20:53  
кіно на 6.5 з 10. досить дитяче. зате про космос ))
askostuk 
Новенький


З нами з: 15.12.14
Востаннє: 20.10.18
Повідомлень: 1

2018-04-23 21:36  
Тупенький і непродуманий серіал
Electroz 
Відео Гуртом - підтримка та поширення
Відео Гуртом - підтримка та поширення


З нами з: 18.09.14
Востаннє: 21.10.18
Повідомлень: 3032

2018-04-23 21:53  
Anonymous написано:

кодек: 2.0
бітрейт: 192 кб/с

Чому AdrianZP не збирав звук?(

Labcomp 
Свій


З нами з: 16.04.08
Востаннє: 20.10.18
Повідомлень: 103

2018-04-24 01:41  
Ті хто пише "тупенький", "дитячий", а чого ви хотіли від сюжету створеного в 65-му році?
Зате непогана картинка, особливо лице робота подобається

andrm 
Свій


З нами з: 17.03.09
Востаннє: 18.10.18
Повідомлень: 71

2018-04-27 11:49  
Pegass написано:

Набагато цікавий за фільм 1998 року.

+1 в колекцію.
Відіслати приватне повідомлення


Жахливий та непродуманий сюжет:
- звуки в космосі
- падіння зі швидкістю 500 метрів/секунду не нищиить усе живе в літальному апараті.
- актори "гарні" замість звичайних людей

Найжахливіше:
- люди не носять головні убори та спецтканину що прикриває їхнє лице коли температура -100 за цельсієм
- поруч, 5-10 хв. спуску росте ліс

Далі не зміг дивитися

Victor_Scythian 
Поважний учасник


З нами з: 06.01.17
Востаннє: 20.10.18
Повідомлень: 215

2018-04-29 01:42  
andrm

Повністю підтримую! 1/10

Anonymous 







2018-05-01 00:21  
+ 2 серія
ValicV 
Свій


З нами з: 19.01.10
Востаннє: 21.10.18
Повідомлень: 116

2018-05-07 00:25  
А ще серії будуть?
Anonymous 







2018-05-07 00:47  
ValicV написано:
А ще серії будуть?

сподіваюсь, будуть. Слідкувати за виходом нових озвучених серій нових можете на сайті студії dzuski.com або на їхньому фейсбуці.

Додано через 1 хвилину 53 секунди:

там же можна глянути реквізити для підтримки та мотивації.

hatak 
Свій


З нами з: 30.04.15
Востаннє: 21.10.18
Повідомлень: 53

2018-05-10 11:47  
На фоні дефіциту якісних фільмів про космос, в міжсезонні Star Trek: Discovery, даний серіал виглядає дуже непогано. Одразу кидається в очі легка наївність сюжету та персонажів — не варто забувати про орієнтацію шоу на дитячо-юнацьку аудиторію. Серед очевидних плюсів фільму — популяризація наукового знання, не наукової фантастики, а саме наукової інформації: про гірські породи, хімічні реакції, взаємодію різних матеріалів і т.п. Також, культивуються правильні загальнолюдські цінності. Виховний і ненав’язливий освітній вплив важко переоцінити.
Anonymous 







2018-05-11 15:55  
+ 3я серія
romkop 
Частий відвідувач


З нами з: 26.05.09
Востаннє: 16.10.18
Повідомлень: 33

2018-05-12 20:40  
hatak написано:
На фоні дефіциту якісних фільмів про космос, в міжсезонні Star Trek: Discovery, даний серіал виглядає дуже непогано. Одразу кидається в очі легка наївність сюжету та персонажів — не варто забувати про орієнтацію шоу на дитячо-юнацьку аудиторію. Серед очевидних плюсів фільму — популяризація наукового знання, не наукової фантастики, а саме наукової інформації: про гірські породи, хімічні реакції, взаємодію різних матеріалів і т.п. Також, культивуються правильні загальнолюдські цінності. Виховний і ненав’язливий освітній вплив важко переоцінити.


Це можна дивитися з моєю донькою, вона має 12 років?

кокошнік 
VIP


З нами з: 09.06.15
Востаннє: 21.10.18
Повідомлень: 885

2018-05-12 20:49  
romkop написано:
Це можна дивитися з моєю донькою, вона має 12 років?

у серіалу вікове обмеження 12+...

Anonymous 







2018-05-12 21:09  
romkop написано:
Це можна дивитися з моєю донькою, вона має 12 років?

так, можна.

Anonymous 







2018-05-13 22:02  
+ 4 серія
Dark Invader 
Модератор відео


З нами з: 06.01.11
Востаннє: 20.10.18
Повідомлень: 2420

2018-05-14 14:43  
Anonymous написано:
кодек: 2.0 (1-3 серії), MP3 (4 серія)

А де ви доріжки берете?

Anonymous 







2018-05-14 15:30  
Dark Invader, в Trina_D. Нажаль, до 4ї серії ас3 доріжки (вже) не було змоги зробити.
Electroz 
Відео Гуртом - підтримка та поширення
Відео Гуртом - підтримка та поширення


З нами з: 18.09.14
Востаннє: 21.10.18
Повідомлень: 3032

2018-05-14 15:46  
Anonymous
Чистих голосів не має?

vatanuki 
Свій


З нами з: 23.09.11
Востаннє: 19.10.18
Повідомлень: 85

2018-05-14 15:47  
Будь ласка 1080p
Anonymous 







2018-05-14 15:56  
Electroz написано:
Чистих голосів не має?

не питав.
vatanuki написано:
Будь ласка 1080p

в мережі зустрічав лише низькоякісне мило, а робити ріпи з 4к HDR в мене зараз немає ні бажання (розбиратись з перетворенням кольорів HDR-SDR), ні можливості.

Anonymous 







2018-05-16 11:28  
+ 5 серія

Electroz написано:
Чистих голосів не має?

не нададуть.

З новин: серіал продовжено на 2й сезон

DoctorLife 
Частий відвідувач


З нами з: 19.04.10
Востаннє: 21.10.18
Повідомлень: 28

2018-05-20 21:31  
Між 4ю та 5ю серіями явно чогось бракує.
Matvej1988 
Новенький


З нами з: 22.03.17
Востаннє: 09.10.18
Повідомлень: 5

2018-05-25 21:11  
коли далі серії будуть?
Anonymous 







2018-05-25 21:19  
Matvej1988 написано:
коли далі серії будуть?

на dzuski.com пишуть, що була затримка, але зараз 6а серія на стадії озвучення.

Matvej1988 
Новенький


З нами з: 22.03.17
Востаннє: 09.10.18
Повідомлень: 5

2018-05-25 21:33  
Anonymous
Дякую, чекаєм.

Anonymous 







2018-05-31 15:47  
+ 6 серія
Lil`Antoni 
VIP


З нами з: 25.02.12
Востаннє: 21.10.18
Повідомлень: 616

2018-05-31 19:06  
Сподобався серіал, легко дивитися. Є деякі персонажі які нервують, але куди без них.

Шкода що за Сотню не взялись, класний серіал.
Хоча може я неправильно шукаю )))

Trina_D 
Частий відвідувач


З нами з: 24.05.10
Востаннє: 20.10.18
Повідомлень: 33

2018-05-31 22:16  
Lil`Antoni
ми коли з'явились вже було п'ять повних сезонів.... нам за таке братися навіть на думку не спало...

Lil`Antoni 
VIP


З нами з: 25.02.12
Востаннє: 21.10.18
Повідомлень: 616

2018-06-01 10:18  
Trina_D
Та я розумію. і жодній українській команді теж Sad (1)

Ваш часовий пояс: GMT + 2 Години

Нова тема   Відповісти Сторінка:  1, 2  наступна