Злодії / Den of Thieves (2018) Remux 1080p Ukr/Eng | Sub Eng

Нові коментарі

Нова тема   Відповісти
Автор Повідомлення
IronBee 
Поважний учасник


З нами з: 08.02.10
Востаннє: 21.10.18
Повідомлень: 208

2018-04-22 13:03  
Злодії / Den of Thieves (2018) Remux 1080p Ukr/Eng | Sub Eng

Злодії / Den of Thieves (2018) Remux 1080p Ukr/Eng | Sub Eng


Жанр: бойовик, драма, кримінал
Країна: США



Кінокомпанія: Relativity Media, STX Entertainment, Atmosphere Entertainment MM, Diamond Film Productions, G-BASE
Режисер: Крістіан Ґудеґаст
Актори: Джерард Батлер, Пабло Шрайбер, О’Ши Джексон мол., Кертіс "50 Cent" Джексон, Соня Балморес, Івен Джонс, Браян Ван Голт, Олег Тактаров, Майкл Пападжон, Еван Джонс

Сюжет:
Головний герой фільму – Нік Фланаган (Джерард Батлер) – керує елітним загоном поліцейських у Лос-Анджелесі. Йому стає відомо про плани Леві (Кертіс Джексон). Це злочинець, який ніколи не помиляється, тож впіймати його не реально. І тепер він планує пограбування Федерального резервного банку Сполучених Штатів. Нік вирішує унеможливити крадіжку, чого б це йому не вартувало. Не допустити здійснення чергового злочину для нього не просто робота, а те, заради чого Нік живе.


Тривалість: 02:20:28
Якість: Remux
Відео:
кодек:
розмір кадру: 1920 х 1080
бітрейт: 26,7 Mб/с

Аудіо # 1: Line In
мова: українська | студія Pie Post Production
переклад: професійний дубльований
кодек: 2.0
бітрейт: 192 кб/с

Аудіо # 2:
мова: англійська
переклад: оригінал
кодек: -HD MA 5.1
бітрейт: 3428 кб/с

Субтитри:
мова: англійська
тип: програмні (м'які)
формат: *.srt
Info
General
Unique ID : 315550554031953469562765503860076165995 (0xED64D37B256E8717F205A4B1BBAFBB6B)
Complete name : D:\Films\Злодії Den of Thieves (2018) Remux 1080p UkrEng Sub Eng[Hurtom].
Format :
Format version : Version 4 / Version 2
File size : 29.7 GiB
Duration : 2 h 20 min
Overall bit rate mode : Variable
Overall bit rate : 30.3 Mb/s
Movie name : Охота на воров_Den of Thieves.2018.Remux.1080p.NNMClub
Encoded date : UTC 2018-04-22 08:15:13
Writing application : v22.0.0 ('At The End Of The World') 64-bit
Writing library : libebml v1.3.5 + v1.4.8

Video
ID : 1
Format : AVC
Format/Info : Advanced Video Codec
Format profile : [email protected]
Format settings : CABAC / 4 Ref Frames
Format settings, CABAC : Yes
Format settings, ReFrames : 4 frames
Codec ID : V_MPEG4/ISO/AVC
Duration : 2 h 20 min
Bit rate mode : Variable
Bit rate : 26.7 Mb/s
Maximum bit rate : 35.0 Mb/s
Width : 1 920 pixels
Height : 1 080 pixels
Display aspect ratio : 16:9
Frame rate mode : Constant
Frame rate : 23.976 (24000/1001) FPS
Color space : YUV
Chroma subsampling : 4:2:0
Bit depth : 8 bits
Scan type : Progressive
Bits/(Pixel*Frame) : 0.536
Stream size : 26.2 GiB (88%)
Language : English
Default : No
Forced : No

Audio #1
ID : 2
Format : AC-3
Format/Info : Audio Coding 3
Codec ID : A_AC3
Duration : 2 h 20 min
Bit rate mode : Constant
Bit rate : 192 kb/s
Channel(s) : 2 channels
Channel positions : Front: L R
Sampling rate : 48.0 kHz
Frame rate : 31.250 FPS (1536 SPF)
Bit depth : 16 bits
Compression mode : Lossy
Stream size : 193 MiB (1%)
Title : професійний дубльований Line In 2.0 192 кб/с
Language : Ukrainian
Service kind : Complete Main
Default : Yes
Forced : No

Audio #2
ID : 3
Format :
Format/Info : Digital Theater Systems
Format profile : MA / Core
Codec ID : A_DTS
Duration : 2 h 20 min
Bit rate mode : Variable / Constant
Bit rate : 3 428 kb/s / 1 509 kb/s
Channel(s) : 6 channels
Channel positions : Front: L C R, Side: L R, LFE
Sampling rate : 48.0 kHz
Frame rate : 93.750 FPS (512 SPF)
Bit depth : 24 bits
Compression mode : Lossless / Lossy
Stream size : 3.36 GiB (11%)
Language : English
Default : No
Forced : No

Text
ID : 4
Format : UTF-8
Codec ID : S_TEXT/UTF8
Codec ID/Info : UTF-8 Plain Text
Duration : 2 h 11 min
Bit rate : 46 b/s
Count of elements : 1482
Stream size : 44.6 KiB (0%)
Language : English
Default : No
Forced : No

Menu
00:00:00.000 : en:1
00:09:15.000 : en:2
00:18:58.000 : en:3
00:31:49.000 : en:4
00:38:14.000 : en:5
00:48:11.000 : en:6
00:58:05.000 : en:7
01:08:43.000 : en:8
01:16:24.000 : en:9
01:26:19.000 : en:10
01:41:35.000 : en:11
01:49:43.000 : en:12
02:08:22.000 : en:13
Скріншоти




Подяка пану Covenant за доріжку

Джерело: &
Особиста оцінка: 10


Золотий реліз (завантажене не впливає на рейтинг)
 Трекер:    Зареєстрований   

Завантажити / скачати фільм українською



відео для новачків



 Зареєстрований:   2018-04-22 13:03
 Розмір:   29.72 GB 
 Оцінка фільму:   9.1/10 (Голосів: 20)
   
Інші релізи
   Злодії / Den of Thieves (2018) 1080p Ukr/Eng | Sub Eng Electroz  20 / 0   10.61 GB   2018-04-21 21:37 
   Злодії / Den of Thieves (2018) AVC Ukr/Eng | Sub Eng 11FrYkT  52 / 0   2.18 GB   2018-04-21 14:04 
   Злодії / Den of Thieves (2018) 720p Ukr/Eng | Sub Eng 11FrYkT  44 / 5   5.02 GB   2018-04-21 13:25 
   Злодії / Den of Thieves (2018) Covenant  84 / 4   1.46 GB   2018-04-21 13:05 
O_omarella! 
Свій


З нами з: 14.06.13
Востаннє: 21.10.18
Повідомлень: 68

2018-07-18 23:53  
Разок глянуть мона!
Ваш часовий пояс: GMT + 2 Години

Нова тема   Відповісти