Жива Ватра / The Living Fire (2015) Ukr | Sub Ukr/Eng

Нові коментарі

Нова тема   Відповісти
Автор Повідомлення
Anonymous 







2018-04-22 08:08  
Жива Ватра / The Living Fire (2015) Ukr | Sub Ukr/Eng



Жанр: документальний
Країна: Україна



Режисер: Остап Костюк
Актори: Іванко Михайлюк, Іван Бесащук, Лук’ян Тонюк, Василь Тонюк, Катерина Тонюк, Марія Паранчич, Микола Паранчич, Дмитро Паранчич, Іван Дарійчук, Іван Самарук

Сюжет:
Документальний фільм «Жива ватра» режисера Остапа Костюка - чотирьохрічне кіноспостереження за життям вівчарів трьох поколінь в Українських Карпатах на фоні сучасних змін.
Це фільм про людське покликання. Про щоденну працю, без вихідних і права на слабкість. Про гармонійний світ, який ми втратили, прагнучи комфорту, і дитинство, яке ми залишаємо, начепивши на себе ролі дорослих…
«Жива ватра» добре оцінена міжнародними критиками та аудиторією міжнародних кінофестивалів в Карлових Варах, Цюріху, Рейк’явіку, Чикаго, Ізраїлі, Мінську, Одесі та інших. А, в Торонто, на найпрестижнішому північноамериканському фестивалі документального кіно Hot Docs, отримала спеціальний приз журі (Special Jury Prize) і премію за високі кінематографічні якості.


Тривалість: 01:16:46
Якість: [Hurtom]
Відео:
кодек:
розмір кадру: 720 х 384
бітрейт: 2100 кб/с

Аудіо:
мова: українська
переклад: оригінал
кодек: 2.0
бітрейт: 192 кб/с

Субтитри # 1:
мова: українська
тип: програмні (м'які)
формат: *.srt

Субтитри # 2:
мова: англійська
тип: програмні (м'які)
формат: *.srt
Info
Код:
General
Complete name               : Zhyva vatra (2015) [Hurtom].avi
Format                      : AVI
Format/Info                 : Audio Video Interleave
File size                   : 1.23 GiB
Duration                    : 1 h 16 min
Overall bit rate            : 2 301 kb/s
Movie name                  : Жива Ватра / The Living Fire (2015) [Ukr] [Hurtom]
Genre                       : документальний
Writing application         : VirtualDubModUkr 1.5.10.2 (build 2542/release)
Writing library             : VirtualDubMod build 2542/release
Comment                     : https://toloka.to/t89516 22.04.2018

Video
ID                          : 0
Format                      : MPEG-4 Visual
Format profile              : Advanced [email protected]
Format settings             : BVOP1
Format settings, BVOP       : 1
Format settings, QPel       : No
Format settings, GMC        : No warppoints
Format settings, Matrix     : Default (MPEG)
Codec ID                    :
Codec ID/Hint               :
Duration                    : 1 h 16 min
Bit rate                    : 2 100 kb/s
Width                       : 720 pixels
Height                      : 384 pixels
Display aspect ratio        : 1.85:1
Frame rate                  : 25.000 FPS
Color space                 : YUV
Chroma subsampling          : 4:2:0
Bit depth                   : 8 bits
Scan type                   : Progressive
Compression mode            : Lossy
Bits/(Pixel*Frame)          : 0.304
Stream size                 : 1.13 GiB (91%)
Writing library             : 67

Audio
ID                          : 1
Format                      : AC-3
Format/Info                 : Audio Coding 3
Codec ID                    : 2000
Duration                    : 1 h 16 min
Bit rate mode               : Constant
Bit rate                    : 192 kb/s
Channel(s)                  : 2 channels
Channel positions           : Front: L R
Sampling rate               : 44.1 kHz
Frame rate                  : 28.711 FPS (1536 SPF)
Bit depth                   : 16 bits
Compression mode            : Lossy
Stream size                 : 105 MiB (8%)
Alignment                   : Split accross interleaves
Interleave, duration        : 40  ms (1.00 video frame)
Interleave, preload duratio : 500  ms
Title                       : UKR Original
Service kind                : Complete Main


Джерело:
Подяка автору реліза-першоджерела


Золотий реліз (завантажене не впливає на рейтинг)
 Трекер:    Зареєстрований   

Завантажити / скачати фільм українською



відео для новачків



 Зареєстрований:   2018-04-22 08:58
 Розмір:   1.23 GB 
 Оцінка фільму:   10/10 (Голосів: 11)
   
ARI71 
Новенький


З нами з: 05.07.15
Востаннє: 17.02.19
Повідомлень: 5

2019-02-11 18:50  
Чомусь не можу завантажити на жаль цей фільм (( У торрент-клієнті роздаючих видно, але чомусь завантаження релізу не йде?
Anonymous 







2019-02-11 19:14  
ARI71, мабуть причина в закритих портах для вхідних з'єднань в тебе та інших учасників файлообміну. Якщо маєш 'сіру' айпі адресу - нічого не вдієш, крім як чекати на появу когось з відкритим портом. А якщо 'білий' айпішнік - то гугли 'як відкрити порт для торента'.
ARI71 
Новенький


З нами з: 05.07.15
Востаннє: 17.02.19
Повідомлень: 5

2019-02-11 22:43  
Anonymous написано:
ARI71, мабуть причина в закритих портах для вхідних з'єднань в тебе та інших учасників файлообміну. Якщо маєш 'сіру' айпі адресу - нічого не вдієш, крім як чекати на появу когось з відкритим портом. А якщо 'білий' айпішнік - то гугли 'як відкрити порт для торента'.


Вже завантажив, дякую!

Ваш часовий пояс: GMT + 2 Години

Нова тема   Відповісти