Людина з чарівною скринькою / Człowiek z magicznym pudełkiem / The Man with the Magic Box (2017) 720p Pol l Sub Ukr/Eng

Нові коментарі

Нова тема   Відповісти
Автор Повідомлення
ivan vyrvyvuho 
VIP


З нами з: 19.08.12
Востаннє: 27.11.20
Повідомлень: 1176

2018-04-21 07:52  
Людина з чарівною скринькою / Człowiek z magicznym pudełkiem / The Man with the Magic Box (2017) 720p Pol l Sub Ukr/Eng

Людина з чарівною скринькою / Człowiek z magicznym pudełkiem / The Man with the Magic Box (2017) 720p Pol l Sub Ukr/Eng


Жанр: романтичний, драма, фантастика
Країна: Польща



Кінокомпанія: Alter Ego Pictures
Режисер: Бодо Кокс / Bodo Kox
Актори: Ольґа Болондзь / Olga Bołądź, Пйотр Поляк / Piotr Polak, Себастіан Станкевич / Sebastian Stankiewicz, Хелена Норович / Helena Norowicz, Войцех Зелінський / Wojciech Zieliński, Бартоломей Фірлет / Bartłomiej Firlet, Якуб Каменський / Jakub Kamieński, Бартош Цао / Bartosz Cao, Анна Конєчна / Anna Konieczna, Аґата Бузек / Agata Buzek, Аркадіуш Якубік / Arkadiusz Jakubik та інші.

Сюжет:
Варшава, недалеке майбутнє, головний герой нічого не пам'ятає після певних подій і саме це його бентежить. Соціальна служба допомагає йому наново влаштуватися у житті: дають житло в старій розвалюсі та роботу прибиральника в корпорації. Там він зустрічає дівчину Ґорію у яку закохується з першого погляду, та ж просто відчуває до нього симпатію, але не розглядає його, як потенційного кавалера, лише як іграшку для утіх. Після того, як Адам знаходить удома старе радіо з минулого століття, дівчина розуміє, що їхній зв'язок це щось більше, ніж розвага.


Тривалість: 01:40:44
Якість:
Відео:
кодек:
розмір кадру: 1280 х 536
бітрейт: 4888 кб/с

Аудіо:
мова: польська
переклад: оригінал
кодек: 5.1
бітрейт: 640 кб/с

Субтитри:
мова: українська
тип: програмні (м'які)
формат: *.srt
переклад: з польської ivan vyrvyvuho

Субтитри:
мова: англійська
тип: програмні (м'які)
формат: *.srt
Скріншоти






Інфо про файл
General
Unique ID : 211943292929212133727718655100898605317 (0x9F72CB1EA68B78D194BC3204F7317905)
Complete name : D:\тор\Czlowiek z magicznym pudelkiem (2017) [Pol,Sub Ukr,Eng] 720p.
Format :
Format version : Version 2
File size : 3.85 GiB
Duration : 1 h 40 min
Overall bit rate : 5 467 kb/s
Encoded date : UTC 2018-04-10 18:34:54
Writing application : v5.6.0 ('Kenya Kane') built on May 27 2012 16:44:04
Writing library : libebml v1.2.3 + v1.3.0
Encoding Gui : Hybrid 2015.05.10.1

Video
ID : 1
Format : AVC
Format/Info : Advanced Video Codec
Format profile : [email protected]
Format settings, CABAC : Yes
Format settings, ReFrames : 4 frames
Codec ID : V_MPEG4/ISO/AVC
Duration : 1 h 40 min
Bit rate : 4 888 kb/s
Width : 1 280 pixels
Height : 536 pixels
Display aspect ratio : 2.40:1
Frame rate mode : Constant
Frame rate : 25.000 FPS
Color space : YUV
Chroma subsampling : 4:2:0
Bit depth : 8 bits
Scan type : Progressive
Bits/(Pixel*Frame) : 0.285
Stream size : 3.32 GiB (86%)
Writing library : core 146 r2538 121396c
Encoding settings : cabac=1 / ref=4 / deblock=1:0:0 / analyse=0x3:0x133 / me=umh / subme=9 / psy=1 / psy_rd=1.00:0.00 / mixed_ref=1 / me_range=16 / chroma_me=1 / trellis=2 / 8x8dct=1 / cqm=0 / deadzone=21,11 / fast_pskip=1 / chroma_qp_offset=-2 / threads=18 / lookahead_threads=1 / sliced_threads=0 / nr=0 / decimate=1 / interlaced=0 / bluray_compat=0 / constrained_intra=0 / bframes=3 / b_pyramid=2 / b_adapt=2 / b_bias=0 / direct=3 / weightb=1 / open_gop=0 / weightp=2 / keyint=250 / keyint_min=25 / scenecut=40 / intra_refresh=0 / rc_lookahead=60 / rc=cbr / mbtree=1 / bitrate=4888 / ratetol=2.0 / qcomp=0.60 / qpmin=0 / qpmax=69 / qpstep=4 / vbv_maxrate=4888 / vbv_bufsize=78125 / nal_hrd=none / filler=0 / ip_ratio=1.40 / aq=1:1.00
Default : Yes
Forced : Yes
Color range : Limited
Matrix coefficients : BT.709

Audio
ID : 2
Format : AC-3
Format/Info : Audio Coding 3
Mode extension : CM (complete main)
Format settings, Endianness : Big
Codec ID : A_AC3
Duration : 1 h 40 min
Bit rate mode : Constant
Bit rate : 640 kb/s
Channel(s) : 6 channels
Channel positions : Front: L C R, Side: L R, LFE
Sampling rate : 48.0 kHz
Frame rate : 31.250 FPS (1536 spf)
Bit depth : 16 bits
Compression mode : Lossy
Stream size : 461 MiB (12%)
Default : No
Forced : No

Text #1
ID : 3
Format : UTF-8
Codec ID : S_TEXT/UTF8
Codec ID/Info : UTF-8 Plain Text
Title : Ukr
Language : Ukrainian
Default : Yes
Forced : Yes

Text #2
ID : 4
Format : UTF-8
Codec ID : S_TEXT/UTF8
Codec ID/Info : UTF-8 Plain Text
Title : Eng
Language : English
Default : No
Forced : No
Джерело:
Особиста оцінка: 7 - мені сподобалося, цікавий фільм


Золотий реліз (завантажене не впливає на рейтинг)
 Трекер:    Зареєстрований   

Завантажити / скачати фільм українською



відео для новачків



 Зареєстрований:   2018-04-21 07:52
 Розмір:   3.85 GB 
 Оцінка фільму:   10/10 (Голосів: 6)
   
Ваш часовий пояс: GMT + 2 Години

Нова тема   Відповісти