Доктор Джекіл та містер Хайд / Dr. Jekyll and Mr. Hyde (2008) 1080p Ukr/Eng | Sub Eng

Нові коментарі

Нова тема   Відповісти
Останній раз роздавалося bogusis (2019-04-17)
Автор Повідомлення
Anonymous 







2018-04-20 15:21  
Доктор Джекіл та містер Хайд / Dr. Jekyll and Mr. Hyde (2008) 1080p Ukr/Eng | Sub Eng

Доктор Джекіл та містер Хайд / Dr. Jekyll and Mr. Hyde (2008) 1080p Ukr/Eng | Sub Eng


Жанр: жахи, фантастика, трилер
Країна: Канада



Кінокомпанія: Muse Entertainment Enterprises
Режисер: Паоло Барзмен / Paolo Barzman
Актори: Дуґрей Скот / Dougray Scott, Кріста Бріджес / Krista Bridges, Том Скерріт / Tom Skerritt, Деннетт Маккей / Danette Mackay, Кес Анвар / Cas Anvar, Елен Девід / Ellen David, Власта Врана / Vlasta Vrana та інші

Сюжет:
Молодий адвокат Клер Вітон отримує пропозицію від дуже дивної людини. Успішний вчений Генрі Джекілл просить у Клер, щоб вона допомогла йому сісти у в'язницю, адже як він стверджує він скоїв жахливі речі... Та Клер не хочеться легкої справи і вона починаю вести розлідування...


Тривалість: 01:29:08
Якість: 1080p [Amazon Video]
Відео:
кодек:
розмір кадру: 1920 x 1080
бітрейт: 10 000 кб/с

Аудіо # 1:
мова: українська
переклад: двоголосий закадровий
кодек: 2.0
бітрейт: 192 кб/с

Аудіо # 2:
мова: англійська
переклад: оригінал
кодек: E- 5.1
бітрейт: 256 кб/с

Джерело озвучення:


Субтитри # 1:
мова: англійська
тип: програмні (м'які)
формат: *.srt

Субтитри # 2: (SDH)
мова: англійська
тип: програмні (м'які)
формат: *.srt
Info

General
Unique ID : 275786844389828647019637074892838368277 (0xCF7A9D3B6A1CFBEFEF5286F8B1BF7415)
Format :
Format version : Version 4 / Version 2
File size : 6.49 GiB
Duration : 1 h 29 min
Overall bit rate : 10.4 Mb/s
Movie name : Доктор Джекіл та містер Хайд / Dr. Jekyll and Mr. Hyde (2008) [Amazon] 1080p [Ukr.Eng Sub.Eng] [Hurtom]
Encoded date : UTC 2018-04-20 14:31:27
Writing application : v21.0.0 ('Tardigrades Will Inherit The Earth') 64-bit
Writing library : libebml v1.3.5 + v1.4.8
Cover : Yes
Attachments : Cover.jpg / Cover2.jpg

Video
ID : 1
Format : AVC
Format/Info : Advanced Video Codec
Format profile : [email protected]
Format settings : CABAC / 4 Ref Frames
Format settings, CABAC : Yes
Format settings, RefFrames : 4 frames
Format settings, GOP : M=4, N=48
Codec ID : V_MPEG4/ISO/AVC
Duration : 1 h 29 min
Bit rate mode : Constant
Bit rate : 10 000 kb/s
Width : 1 920 pixels
Height : 1 080 pixels
Display aspect ratio : 16:9
Frame rate mode : Constant
Frame rate : 23.976 (24000/1001) FPS
Color space : YUV
Chroma subsampling : 4:2:0
Bit depth : 8 bits
Scan type : Progressive
Bits/(Pixel*Frame) : 0.201
Stream size : 6.21 GiB (96%)
Title : Dr. Jekyll and Mr. Hyde (2008) [Amazon] 1080p [Ukr.Eng Sub.Eng] [Hurtom]
Language : English
Default : Yes
Forced : No
Color range : Limited
Color primaries : BT.709
Transfer characteristics : BT.709
Matrix coefficients : BT.709

Audio #1
ID : 2
Format : AC-3
Format/Info : Audio Coding 3
Codec ID : A_AC3
Duration : 1 h 29 min
Bit rate mode : Constant
Bit rate : 192 kb/s
Channel(s) : 2 channels
Channel positions : Front: L R
Sampling rate : 48.0 kHz
Frame rate : 31.250 FPS (1536 SPF)
Bit depth : 16 bits
Compression mode : Lossy
Stream size : 122 MiB (2%)
Title : DVO | NLO-TV | 2.0 | 192 kbps
Language : Ukrainian
Service kind : Complete Main
Default : Yes
Forced : No

Audio #2
ID : 3
Format : E-AC-3
Format/Info : Enhanced Audio Coding 3
Codec ID : A_EAC3
Duration : 1 h 29 min
Bit rate mode : Constant
Bit rate : 256 kb/s
Channel(s) : 6 channels
Channel positions : Front: L C R, Side: L R, LFE
Sampling rate : 48.0 kHz
Frame rate : 187.500 FPS (256 SPF)
Compression mode : Lossy
Delay relative to video : 10 ms
Stream size : 163 MiB (2%)
Title : Original
Language : English
Service kind : Complete Main
Default : No
Forced : No

Text #1
ID : 4
Format : UTF-8
Codec ID : S_TEXT/UTF8
Codec ID/Info : UTF-8 Plain Text
Duration : 1 h 28 min
Bit rate : 43 b/s
Count of elements : 1082
Stream size : 28.0 KiB (0%)
Title : Original
Language : English
Default : No
Forced : No

Text #2
ID : 5
Format : UTF-8
Codec ID : S_TEXT/UTF8
Codec ID/Info : UTF-8 Plain Text
Duration : 1 h 28 min
Bit rate : 45 b/s
Count of elements : 1161
Stream size : 29.5 KiB (0%)
Title : Original (SDH)
Language : English
Default : No
Forced : No

Menu
00:00:00.000 : en:Chapter 01
00:06:56.225 : en:Chapter 02
00:15:11.637 : en:Chapter 03
00:21:41.068 : en:Chapter 04
00:30:44.569 : en:Chapter 05
00:35:01.993 : en:Chapter 06
00:43:20.449 : en:Chapter 07
00:51:18.760 : en:Chapter 08
00:57:49.484 : en:Chapter 09
01:06:17.158 : en:Chapter 10
01:09:51.664 : en:Chapter 11
01:26:33.998 : en:Chapter 12
Скріншоти










Джерело: &
Особиста оцінка: 0 - не дивився
Подяки:
п.slavik_v_z - за запис з ТБ.
п.patriot2305 - за опис та синхронізацію під .

NR/Unrated - рейтинг стрічки, встановлений Американською асоціацією кінокомпаній

MPAA, англ. Motion Picture Association of America - Американська асоціація кінокомпаній

Рейтинг NR/Unrated - фільм ще не був оцінений MPAA


Не забуваємо дякувати!


 Трекер:    Зареєстрований   

Завантажити / скачати фільм українською



відео для новачків



 Зареєстрований:   2018-04-20 19:08
 Розмір:   6.49 GB 
 Оцінка фільму:   10/10 (Голосів: 4)
   
Інші релізи
jura171 
Новенький


З нами з: 06.03.17
Востаннє: 07.04.19
Повідомлень: 13

2019-02-17 15:05  
дайте роздачу будь ласка
Ваш часовий пояс: GMT + 2 Години

Нова тема   Відповісти