Теорія Великого Вибуху (Сезон 11, Серія 1-4) / The Big Bang Theory (Season 11, Episode 1-4) (2017-2018) 720р Eng | sub Ukr

Нові коментарі

Нова тема   Відповісти
Останній раз роздавалося dr_stas (2020-11-27)
Автор Повідомлення
Baida-Nemova 
Новенький


З нами з: 13.09.16
Востаннє: 08.12.19
Повідомлень: 11

2018-04-20 10:38  
Теорія Великого Вибуху (Сезон 11, Серія 1-4) / The Big Bang Theory (Season 11, Episode 1-4) (2017-2018) 720р Eng | sub Ukr

Теорія Великого Вибуху (Сезон 11, Серія 1-4) / The Big Bang Theory (Season 11, Episode 1-4) (2017-2018) 720р Eng | sub Ukr


Жанр: комедія, ситком
Країна: США



Кінокомпанія: Chuck Lorre Productions, Warner Bros. Television
Режисер: Марк Седровські
Актори: Джоні Ґалецкі, Джим Парсонс, Кейлі Куоко, Саймон Гельберґ, Кунал Наяр, Меліса Роч, Маєм Бієлік та інші

Сюжет:
Новий сезон комедії про двох геніальних фізиків, які розуміють як влаштований всесвіт, але гадки не мають як спілкуватися з людьми.


Тривалість: 1 серія: 22 хв. (цілком серій 4 з 24)
Перелік серій
1. The Proposal Proposal/Пропозиція пропозиції
2. The Retraction Reaction/Реакція відведення
3. The Relaxation Integration/Інтеграція релаксації
4. The Explosion Implosion/Імплазія вибуху
Якість:
Відео:
кодек:
розмір кадру: 1 280 х 720
бітрейт: ~ 2 600 кб/с

Аудіо:
мова: англійська
переклад: оригінал
кодек: 2.0
бітрейт: 384 кб/с

Субтитри:
мова: українська
тип: вбудовані (жорсткі)
Info
General
Unique ID : 241759075323998865564234753677827835198 (0xB5E11AB01676F07014C4C02D0995053E)
Complete name : D:\TBBT__11__uk__Baida\The.Big.Bang.Theory.S11E01.720p.HDTV.[Baida].
Format :
Format version : Version 4 / Version 2
File size : 664 MiB
Duration : 20 min 47 s
Overall bit rate : 4 463 kb/s
Encoded date : UTC 2017-09-25 20:43:10
Writing application : Lavf57.71.100
Writing library : Lavf57.71.100
ErrorDetectionType : Per level 1

Video
ID : 1
Format : AVC
Format/Info : Advanced Video Codec
Format profile : [email protected]
Format settings, CABAC : Yes
Format settings, ReFrames : 2 frames
Codec ID : V_MPEG4/ISO/AVC
Duration : 20 min 47 s
Bit rate : 3 991 kb/s
Width : 1 280 pixels
Height : 720 pixels
Display aspect ratio : 16:9
Frame rate mode : Constant
Frame rate : 23.976 (24000/1001) FPS
Color space : YUV
Chroma subsampling : 4:2:0
Bit depth : 8 bits
Scan type : Progressive
Bits/(Pixel*Frame) : 0.181
Stream size : 593 MiB (89%)
Language : English
Default : Yes
Forced : No
DURATION : 00:20:47.037000000

Audio
ID : 2
Format : AC-3
Format/Info : Audio Coding 3
Format settings, Endianness : Big
Codec ID : A_AC3
Duration : 20 min 47 s
Bit rate mode : Constant
Bit rate : 384 kb/s
Channel(s) : 2 channels
Channel positions : Front: L R
Sampling rate : 48.0 kHz
Frame rate : 31.250 FPS (1536 spf)
Bit depth : 16 bits
Compression mode : Lossy
Stream size : 57.1 MiB (9%)
Service kind : Complete Main
Default : Yes
Forced : No
DURATION : 00:20:47.040000000
Скріншоти


Джерело:
Особиста оцінка: 8 - мені сподобалося



Золотий реліз (завантажене не впливає на рейтинг)
 Трекер:    Зареєстрований   

Завантажити / скачати серіал українською



відео для новачків



 Зареєстрований:   2018-04-24 11:55
 Розмір:   2.59 GB 
 Оцінка серіалу:   8.7/10 (Голосів: 15)
   
leicheman 
Відео Гуртом - фільмокрай
Відео Гуртом - фільмокрай


З нами з: 03.07.14
Востаннє: 27.11.20
Повідомлень: 5690

2018-04-20 14:00  
Навіщо ви вотермарку у вигляді свого ніку втулили у відеоряд?
Baida-Nemova 
Новенький


З нами з: 13.09.16
Востаннє: 08.12.19
Повідомлень: 11

2018-04-20 14:47  
Заважає перегляду?
leicheman 
Відео Гуртом - фільмокрай
Відео Гуртом - фільмокрай


З нами з: 03.07.14
Востаннє: 27.11.20
Повідомлень: 5690

2018-04-20 16:20  
Baida-Nemova
Так.

jmBic 
Новенький


З нами з: 20.05.12
Востаннє: 24.11.20
Повідомлень: 5

2018-04-20 22:51  
Надзвичайно приємний переклад. Дуже дякую!
colorsky 
Новенький


З нами з: 31.05.15
Востаннє: 27.11.20
Повідомлень: 10

2018-04-21 09:49  
Урррааа! Дякую!!
Baida-Nemova 
Новенький


З нами з: 13.09.16
Востаннє: 08.12.19
Повідомлень: 11

2018-04-22 16:49  
Додано 3 серію!
Опис серії
Шелдон та Емі намагаються вибрати дату для весілля. Емі хоче святкування на пагорбі, чого зовсім не хоче Шелдон. Тим часом Стюарт та Радж боряться між собою за побачення з колегою Бернадет.

Baida-Nemova 
Новенький


З нами з: 13.09.16
Востаннє: 08.12.19
Повідомлень: 11

2018-04-24 12:05  
Додано 4 серію!
Опис серії
Леонард пригнічений дружбою, яка розвивається між його матір'ю та Пенні. Тим часом Шелдон з Раджем та Говардом досліджують старі наукові моделі Говарда.

shelezyaka 
Новенький


З нами з: 12.01.14
Востаннє: 18.09.20
Повідомлень: 1

2018-09-03 16:15  
Наступні серії плануються?
For_friends_HD 
Частий відвідувач


З нами з: 09.09.12
Востаннє: 09.03.20
Повідомлень: 31

2018-09-09 02:35  
Парамаунт Камеді пообіцяв перекласти ввесь серіал українською мовою і вже розпочав показ українською мовою.
Lenka007 
Новенький


З нами з: 03.05.15
Востаннє: 16.07.20
Повідомлень: 9

2018-10-17 14:09  
а що, продовження не буде?(((
Ваш часовий пояс: GMT + 2 Години

Нова тема   Відповісти