Погоня за ураганом / The Hurricane Heist (2018)

Нові коментарі

Нова тема   Відповісти
Автор Повідомлення
Anonymous 







2018-04-19 22:53  
Погоня за ураганом / The Hurricane Heist (2018)



Жанр: бойовик, трилер
Країна: США



Кінокомпанія: Foresight Unlimited, Head Gear Films
Режисер: Роб Коен / Rob Cohen
Актори: Меґґ Ґрейс / Maggie Grace, Тобі Кеббелл / Toby Kebbell, Раян Квантен / Ryan Kwanten, Ралф Айнесон / Ralph Ineson, Мелісса Болона / Melissa Bolona, Бен Кросс / Ben Cross, Джемі Ендрю Катлер / Jamie Andrew Cutler, Крістіан Контрерас / Christian Contreras, Мойо Аканде / Moyo Akandé, Кіт Д. Еванс / Keith D. Evans та інші

Сюжет:
На узбережжя Америки стрімко насувається ураган небувалої сили. Група злочинців планує скористатися катаклізмом, аби здійснити пограбування банку. Це мало би стати ідеальним прикриттям та ідеальним зметенням слідів, адже охороняти банк під час негоди нікому. Поліції у евакуйованому місті немає. Є лише метеоролог Уіл (Тобі Кеббелл) і агент казначейства Кейсі (Меґґі Ґрейс). І просто так полишити свій пост вони не планують. Захищаючи гроші, вони знайдуть ще одного брата по зброї. Кілька сотень мільйонів доларів так легко злодіям не дістануться. Негода внесе свої корективи у плани як грабіжників, так і тих, хто вирішив захищати гроші.
Офіційні українські промо та трейлер:

промо:


трейлер:

Рейтинг MPAA: PG-13 - дітям до 13 років перегляд не бажаний
Вікова категорія: 12+
Тривалість: 01:42:31
Якість:
Відео:
кодек:
розмір кадру: 704 х 304
бітрейт: 1648 кб/с

Аудіо:
мова: українська
переклад: професійний дубльований | студія ААА-sound
кодек: 2.0 [stereo]
бітрейт: 192 кб/с
Інформація про дубляж
Перекладач: Юлія Когут
Режисер дубляжу та звукорежисер перезапису: Олександр Єфімов
Ролі дублювали: Андрій Федінчик, Антоніна Якушева, Роман Чорний, Євген Пашин, Юрій Ребрик, Михайло Кришталь, Юлія Перенчук, Андрій Альохін, Іван Розін, Катерина Буцька, Ярослав Чорненький, Дмитро Гаврилов та інші.

Фільм дубльовано студією ААА-sound у 2018 році на замовлення компанії Кіноманія.
Info
Код:
General
Complete name               : The Hurricane Heist (2018) [Ukr] [Hurtom].avi
Format                      : AVI
Format/Info                 : Audio Video Interleave
File size                   : 1.32 GiB
Duration                    : 1 h 42 min
Overall bit rate            : 1 849 kb/s
Movie name                  : Погоня за ураганом / The Hurricane Heist (2018) [Ukr] [Hurtom]
Genre                       : бойовик, трилер
Writing application         : VirtualDubModUkr 1.5.10.2 (build 2542/release)
Writing library             : VirtualDubMod build 2542/release
Comment                     : https://toloka.to/t89473 19.04.2018

Video
ID                          : 0
Format                      : MPEG-4 Visual
Format profile              : Advanced [email protected]
Format settings             : BVOP1 / Custom Matrix
Format settings, BVOP       : 1
Format settings, QPel       : No
Format settings, GMC        : No warppoints
Format settings, Matrix     : Custom
Codec ID                    :
Codec ID/Hint               :
Duration                    : 1 h 42 min
Bit rate                    : 1 648 kb/s
Width                       : 704 pixels
Height                      : 304 pixels
Display aspect ratio        : 2.35:1
Frame rate                  : 23.976 (24000/1001) FPS
Color space                 : YUV
Chroma subsampling          : 4:2:0
Bit depth                   : 8 bits
Scan type                   : Progressive
Compression mode            : Lossy
Bits/(Pixel*Frame)          : 0.321
Stream size                 : 1.18 GiB (89%)
Writing library             : 73

Audio
ID                          : 1
Format                      : AC-3
Format/Info                 : Audio Coding 3
Codec ID                    : 2000
Duration                    : 1 h 42 min
Bit rate mode               : Constant
Bit rate                    : 192 kb/s
Channel(s)                  : 2 channels
Channel positions           : Front: L R
Sampling rate               : 48.0 kHz
Frame rate                  : 31.250 FPS (1536 SPF)
Bit depth                   : 16 bits
Compression mode            : Lossy
Stream size                 : 141 MiB (10%)
Alignment                   : Split accross interleaves
Interleave, duration        : 42  ms (1.00 video frame)
Interleave, preload duratio : 500  ms
Title                       : UKR DUB [AAA-sound, Megogo]
Service kind                : Complete Main


Джерело: & &


 Трекер:    Зареєстрований   

Завантажити / скачати фільм українською



відео для новачків



 Зареєстрований:   2018-04-19 22:56
 Розмір:   1.32 GB 
 Оцінка фільму:   8.9/10 (Голосів: 75)
   
alex2 
Свій


З нами з: 01.02.12
Востаннє: 16.11.18
Повідомлень: 108

2018-04-21 09:52  
фільм - набір кліше, дякую за роздачу.
ua2014 
Частий відвідувач


З нами з: 29.04.14
Востаннє: 16.11.18
Повідомлень: 25

2018-04-24 08:45  
"Негода внесе свої корективи...", такий цікавий опис Happy
masiff 
Свій


З нами з: 06.12.16
Востаннє: 16.11.18
Повідомлень: 68

2018-04-24 11:14  
Як фільм не дізнатись..?
Anonymous 







2018-04-24 11:19  
masiff, додав в опис промо та трейлер.
Snaipss 
Новенький


З нами з: 13.01.13
Востаннє: 21.09.18
Повідомлень: 2

2018-05-12 14:17  
Повiвся на те, що режисером був Роб Коен. Але ж фiльм справжня нудота зi спецефектами 2000 року. Щось подiбне та не справжнє було в "хХх" цього режисера. Гарно зняв Форсаж. Але ж не в 2018 роцi такого рiвня спецефекти показувати!
Супутникова вежа яку зриває звичайний автомобiль, наче iграшкова падає, i це заважає хакерам розшифрувати останню пару цифр, вiйськовi якi вирубаються як тiльки дротики зi снодiйним в них влучають, головнi героi в торговому центрi, якi лiтають над ним на мотузках, та залишаються живими та неушкодженими, сцена коли вони обидва захотiли вiдлити - це повинно було веселити?, ураган який показує обличчя (череп) це зовсiм перебiр, прицеп з тягча головного злодiя пiдлiтає та влучає в його тягач, як завжди тiльки брат героя рятується з тягача який раптом задимiвся... око урагану рухається саме по тiй дорозi, якою прямують головнi героi та злодii. є ще купа дурних моментiв на якi дивитися тяжко.
Неначе цей фiльм був знятий в 2000, та зробили релiз в 2018. Режисер завис у минулому, такий фiльм не зможе пiдняти його в очах глядача. Витрачений час на перегляд може бути потрачений на бiльш цiкавi розваги.
Не рекомендую...

andriuha80 
Свій


З нами з: 21.03.14
Востаннє: 10.11.18
Повідомлень: 63

2018-05-22 21:26  
Не сподобалось. Нудно. Купа штампів.
І так, перші люди загинули саме від рук "позитивних" героїв Happy

DEATHDOOM 
Новенький


З нами з: 24.02.12
Востаннє: 17.11.18
Повідомлень: 17

2018-06-24 20:44  
Класний фільм. Завантажу собі до колекції.
Саня01 
Частий відвідувач


З нами з: 13.06.18
Востаннє: 16.11.18
Повідомлень: 25

2018-06-30 08:13  
Панове, допоможіть. Хочу знайти фільм та забувся назву: Події у США після 11 вересня, декілька добровольців вирушають воювати в Іран потрапляють в засідку. На конях пробиваються крізь оточення. Хто знає киньте посилання, буду вдячний.
Anonymous 







2018-06-30 10:17  
Саня01, 12 Сильних / 12 Strong (2018) , українською немає (не був у прокаті).
Ваш часовий пояс: GMT + 2 Години

Нова тема   Відповісти