Тихоокеанський рубіж: Повстання / Pacific Rim: Uprising (2018)

Нові коментарі

Нова тема   Відповісти
Автор Повідомлення
Anonymous 







2018-04-19 21:32  
Тихоокеанський рубіж: Повстання / Pacific Rim: Uprising (2018)



Жанр: бойовик, пригоди, фантастика
Країна: США, Китай, Велика Британія



Кінокомпанія: Universal Pictures, Legendary Pictures
Режисер: Стівен С. ДеНайт / Steven S. DeKnight
Актори: Джон Боєґа / John Boyega, Скотт Іствуд / Scott Eastwood, Адріа Архона / Adria Arjona, Тянь Цзин / Tian Jing, Рінко Кікучі / Rinko Kikuchi, Чарлі Дей / Charlie Day, Берн Горман / Burn Gorman, Дастін Клер / Dustin Clare, Каран Брар / Karan Brar, Іванна Сахно та інші

Сюжет:
Від великої битви між людьми та кайдзю минуло 10 років. Монстри з глибин океану більше не дошкуляють людям, проте роботи над створенням удосконалених єгерів не припинялися. І не даремно, бо кайдзю знову виходять на поверхню. Очолити спротив та стати пілотом кращого з єгерів зможе лише Джейк Пентекост (Джон Боєґа) – син Стекера, який керував загоном пілотів єгерів десять років тому.


Тривалість: 01:50:41
Якість: [Hurtom]
Відео:
кодек:
розмір кадру: 720 х 304
бітрейт: 1675 кб/с

Аудіо:
мова: українська
переклад: професійний дубльований | студія LeDoyen
кодек: 2.0
бітрейт: 192 кб/с
Інформація про дубляж
Переклад: Олег Колесніков
Режисер дубляжу: Катерина Брайковська
Звукорежисер: Альона Шиманович
Координатор дубляжу: Ольга Боєва
Ролі дублювали: Роман Молодій, Вероніка Дюпіна, Дмитро Сова, Андрій Альохін, Дмитро Завадський, Іванна Сахно, Руслан Драпалюк, Анна Коваль, Дарина Муращенко, Павло Лі, Юрій Кудрявець, Антоніна Якушева, Юрій Сосков та інші.

Фільм надано компанією Universal. Дубльовано та зміксовано студією LeDoyen на замовлення компанії B&H Film Distribution.
Субтитри # 1:
мова: російська (на написи)
тип: вбудовані (жорсткі)

Субтитри # 2:
мова: українська (на китайську мову)
тип: вбудовані (жорсткі)
Info
Код:
General
Complete name               : Pacific Rim. Uprising (2018) [Ukr] [Hurtom].avi
Format                      : AVI
Format/Info                 : Audio Video Interleave
File size                   : 1.45 GiB
Duration                    : 1 h 50 min
Overall bit rate            : 1 876 kb/s
Movie name                  : Тихоокеанський рубіж: Повстання / Pacific Rim: Uprising (2018) [Ukr] [Hurtom]
Genre                       : бойовик, пригодницький, фантастика
Recorded date               : 18.05.2018
Writing application         : VirtualDubModUkr 1.5.10.2 (build 2542/release)
Writing library             : VirtualDubMod build 2542/release

Video
ID                          : 0
Format                      : MPEG-4 Visual
Format profile              : Advanced [email protected]
Format settings             : BVOP1
Format settings, BVOP       : 1
Format settings, QPel       : No
Format settings, GMC        : No warppoints
Format settings, Matrix     : Default (MPEG)
Codec ID                    :
Codec ID/Hint               :
Duration                    : 1 h 50 min
Bit rate                    : 1 675 kb/s
Width                       : 720 pixels
Height                      : 304 pixels
Display aspect ratio        : 2.35:1
Frame rate                  : 23.976 (24000/1001) FPS
Color space                 : YUV
Chroma subsampling          : 4:2:0
Bit depth                   : 8 bits
Scan type                   : Progressive
Compression mode            : Lossy
Bits/(Pixel*Frame)          : 0.319
Stream size                 : 1.29 GiB (89%)
Writing library             : 67

Audio
ID                          : 1
Format                      : AC-3
Format/Info                 : Audio Coding 3
Codec ID                    : 2000
Duration                    : 1 h 50 min
Bit rate mode               : Constant
Bit rate                    : 192 kb/s
Channel(s)                  : 2 channels
Channel positions           : Front: L R
Sampling rate               : 48.0 kHz
Frame rate                  : 31.250 FPS (1536 SPF)
Bit depth                   : 16 bits
Compression mode            : Lossy
Stream size                 : 152 MiB (10%)
Alignment                   : Split accross interleaves
Interleave, duration        : 42  ms (1.00 video frame)
Interleave, preload duratio : 500  ms
Title                       : UKR DUB [Line, LeDoyen]
Service kind                : Complete Main
Ще скріншоти:
Джерело: &
Переклад та компіляція українських форсованих субтитрів: igor911.

18.05.2018 реліз оновлено з корейського 'у до , додано українські форсовані субтитри на китайську мову.


 Трекер:    Зареєстрований   

Завантажити / скачати фільм українською



відео для новачків



 Зареєстрований:   2018-05-18 01:16
 Розмір:   1.45 GB 
 Оцінка фільму:   8.8/10 (Голосів: 64)
   
omm 
Відео Гуртом - фільмокрай
Відео Гуртом - фільмокрай


З нами з: 12.06.12
Востаннє: 25.05.18
Повідомлень: 2239

2018-04-19 22:58  
Ніколи б не подумав, що екшн-фільм може бути настільки нудним.
Коли немає цікавих героїв, за яких хотілося б переживати, немає нормальної історії, екшн ніякий фільм не витягне.
5 з 10.
До першої частини, як до Києва пішки.

zapas 
Новенький


З нами з: 17.11.12
Востаннє: 26.05.18
Повідомлень: 10

2018-04-19 23:36  
лайно
piliq 
Новенький


З нами з: 04.02.12
Востаннє: 26.05.18
Повідомлень: 18

2018-04-20 11:15  
Такі фільми потрібно дивитись тільки у кінотеатрах, або вдома на крутих телевізорах. Інакше - змісту від фільму нуль. Тут спецефекти - головне! А сюжет чи гра акторів - другорядне.
дядя1111 
Новенький


З нами з: 08.02.15
Востаннє: 26.05.18
Повідомлень: 10

2018-04-20 12:43  
На 3Д теліке має бути бомба
Zastavniy.Andriy 
Частий відвідувач


З нами з: 06.11.12
Востаннє: 25.05.18
Повідомлень: 44

2018-04-21 21:47  
Перша частина була така собі, а от друга крутяк, навіть сюжет такий нічого. Рекомендую до перегляду.
ssoft 
Новенький


З нами з: 08.04.12
Востаннє: 23.05.18
Повідомлень: 4

2018-04-23 01:01  
зате там грає наша дівчинка. Киянка Іванка Сахно!
Anonymous 







2018-05-18 01:18  
Реліз оновлено з корейського 'у до , додано українські форсовані субтитри на китайську мову.
Bender_Rodrigues 
Новенький


З нами з: 05.04.15
Востаннє: 23.05.18
Повідомлень: 12

2018-05-18 23:29  
епік фейл...сцена в кінці фільму взагалі апофігєй фієрії
tpolit 
VIP


З нами з: 10.01.15
Востаннє: 25.05.18
Повідомлень: 283

2018-05-19 10:17  
Неймовірно примітивне кіно, дивився його зціпивши зуби і тримаючись за голову. Єдине, що тут вийшло більш менш - так це гарні роботи та битви роботів. 4/10.
NazarCo 
Новенький


З нами з: 17.04.09
Востаннє: 22.05.18
Повідомлень: 16

2018-05-19 17:51  
Нормальний фільм, були в кінотеатрі - все сподобалось, звичайно немає супер закрученого сюжету, але це не триллер, тому як на мене 7 з 10. Тай зараз всі стали такими великими кінокритиками, що аж вивертає. В сусідній роздачі Чорну пантеру обгадили, тут Рубіж. Пора зрозуміти що фільми розраховані на загальну аудиторію і в 21 столітті досягнути намагаються "вав ефекту" в основному за рахунок спец ефектів, яких ви вдома на звичайному моніторі не побачите. Тай для порівняння перегляньте фільми 80-90 про супергероїв чи роботів, думаю що більшості буде смішно з побаченого....
Махиндра 
Частий відвідувач


З нами з: 28.11.16
Востаннє: 25.05.18
Повідомлень: 32

2018-05-22 16:34  
Дякую за фільм! сподобалася ця частина навіть більше ніж перша. Іванна Сахно гарнюня) взагалі не знав про неї, а тепер от знаю. Дякую!
Ваш часовий пояс: GMT + 2 Години

Нова тема   Відповісти