Тихоокеанський рубіж: Повстання / Pacific Rim: Uprising (2018) 720p Ukr/Eng | Sub Eng

Нові коментарі

Нова тема   Відповісти
Автор Повідомлення
Anonymous 







2018-04-19 21:20  
Тихоокеанський рубіж: Повстання / Pacific Rim: Uprising (2018) 720p Ukr/Eng | Sub Eng



Жанр: бойовик, пригоди, фантастика
Країна: США, Китай, Велика Британія



Кінокомпанія: Universal Pictures, Legendary Pictures
Режисер: Стівен С. ДеНайт / Steven S. DeKnight
Актори: Джон Боєґа / John Boyega, Скотт Іствуд / Scott Eastwood, Адріа Архона / Adria Arjona, Тянь Цзин / Tian Jing, Рінко Кікучі / Rinko Kikuchi, Чарлі Дей / Charlie Day, Берн Горман / Burn Gorman, Дастін Клер / Dustin Clare, Каран Брар / Karan Brar, Іванна Сахно та інші

Сюжет:
Від великої битви між людьми та кайдзю минуло 10 років. Монстри з глибин океану більше не дошкуляють людям, проте роботи над створенням удосконалених єгерів не припинялися. І не даремно, бо кайдзю знову виходять на поверхню. Очолити спротив та стати пілотом кращого з єгерів зможе лише Джейк Пентекост (Джон Боєґа) – син Стекера, який керував загоном пілотів єгерів десять років тому.


Тривалість: 01:50:41
Якість: 720p
Відео:
кодек:
розмір кадру: 1280 х 532
бітрейт: 4023 кб/с

Аудіо # 1:
мова: українська
переклад: професійний дубльований | студія LeDoyen
кодек: 2.0
бітрейт: 192 кб/с
Інформація про дубляж
Переклад: Олег Колесніков
Режисер дубляжу: Катерина Брайковська
Звукорежисер: Альона Шиманович
Координатор дубляжу: Ольга Боєва
Ролі дублювали: Роман Молодій, Вероніка Дюпіна, Дмитро Сова, Андрій Альохін, Дмитро Завадський, Іванна Сахно, Руслан Драпалюк, Анна Коваль, Дарина Муращенко, Павло Лі, Юрій Кудрявець, Антоніна Якушева, Юрій Сосков та інші.

Фільм надано компанією Universal. Дубльовано та зміксовано студією LeDoyen на замовлення компанії B&H Film Distribution.
Аудіо # 2:
мова: англійська
переклад: оригінал
кодек: 2.0
бітрейт: 192 кб/с

Субтитри # 1:
мова: російська (на написи)
тип: вбудовані (жорсткі)
примітка: на момент підготовки релізу іншого якісного відеоряду без рос.вшитих субтитрів не було у відкритому доступі

Субтитри # 2:
мова: українська (на китайську мову)
тип: програмні (м'які)
формат: *.srt

Субтитри # 3:
мова: англійська (повні)
тип: програмні (м'які)
формат: *.srt

Збережено оригінальні розділи
Info
Код:
Complete name               : Pacific Rim. Uprising (2018) [Ukr,Eng sub.Eng] 720p [Hurtom].
Format                      :
Format version              : Version 4 / Version 2
File size                   : 3.41 GiB
Duration                    : 1 h 50 min
Overall bit rate            : 4 410 kb/s
Movie name                  : Тихоокеанський рубіж: Повстання / Pacific Rim: Uprising (2018) [Ukr,Eng sub.Eng] 720p [Hurtom]
Encoded date                : UTC 2018-05-17 18:16:32
Writing application         : v23.0.0 ('The Bride Said No') 64-bit
Writing library             : libebml v1.3.6 + v1.4.9
Cover                       : Yes
Attachments                 : cover.jpg

Video
ID                          : 1
Format                      : AVC
Format/Info                 : Advanced Video Codec
Format profile              : [email protected]
Format settings             : 2 Ref Frames
Format settings, CABAC      : No
Format settings, ReFrames   : 2 frames
Codec ID                    : V_MPEG4/ISO/AVC
Duration                    : 1 h 50 min
Bit rate                    : 4 023 kb/s
Width                       : 1 280 pixels
Height                      : 532 pixels
Display aspect ratio        : 2.40:1
Frame rate mode             : Constant
Frame rate                  : 23.976 (23976/1000) FPS
Color space                 : YUV
Chroma subsampling          : 4:2:0
Bit depth                   : 8 bits
Scan type                   : Progressive
Bits/(Pixel*Frame)          : 0.246
Stream size                 : 3.11 GiB (91%)
Title                       : Тихоокеанський рубіж: Повстання / Pacific Rim: Uprising (2018) 720p [BLUEBIRD]
Language                    : English
Default                     : Yes
Forced                      : No
Color range                 : Limited
Color primaries             : BT.709
Transfer characteristics    : BT.709
Matrix coefficients         : BT.709

Audio #1
ID                          : 2
Format                      : AC-3
Format/Info                 : Audio Coding 3
Codec ID                    : A_AC3
Duration                    : 1 h 50 min
Bit rate mode               : Constant
Bit rate                    : 192 kb/s
Channel(s)                  : 2 channels
Channel positions           : Front: L R
Sampling rate               : 48.0 kHz
Frame rate                  : 31.250 FPS (1536 SPF)
Bit depth                   : 16 bits
Compression mode            : Lossy
Stream size                 : 152 MiB (4%)
Title                       : DUB [Line, LeDoyen] 2.0 192 kbps
Language                    : Ukrainian
Service kind                : Complete Main
Default                     : Yes
Forced                      : Yes

Audio #2
ID                          : 3
Format                      : AC-3
Format/Info                 : Audio Coding 3
Codec ID                    : A_AC3
Duration                    : 1 h 50 min
Bit rate mode               : Constant
Bit rate                    : 192 kb/s
Channel(s)                  : 2 channels
Channel positions           : Front: L R
Sampling rate               : 48.0 kHz
Frame rate                  : 31.250 FPS (1536 SPF)
Bit depth                   : 16 bits
Compression mode            : Lossy
Stream size                 : 152 MiB (4%)
Title                       : Original, 2.0 192 Kbps
Language                    : English
Service kind                : Complete Main
Default                     : No
Forced                      : No

Text #1
ID                          : 4
Format                      : UTF-8
Codec ID                    : S_TEXT/UTF8
Codec ID/Info               : UTF-8 Plain Text
Duration                    : 42 min 41 s
Bit rate                    : 8 b/s
Count of elements           : 36
Stream size                 : 2.58 KiB (0%)
Title                       : Ukr forced
Language                    : Ukrainian
Default                     : Yes
Forced                      : Yes

Text #2
ID                          : 5
Format                      : UTF-8
Codec ID                    : S_TEXT/UTF8
Codec ID/Info               : UTF-8 Plain Text
Duration                    : 1 h 40 min
Bit rate                    : 56 b/s
Count of elements           : 1127
Stream size                 : 41.7 KiB (0%)
Title                       : Eng full
Language                    : English
Default                     : No
Forced                      : No

Menu
00:00:00.000                : en:1
00:06:55.874                : en:2
00:13:06.369                : en:3
00:15:52.076                : en:4
00:20:37.361                : en:5
00:24:50.697                : en:6
00:31:09.242                : en:7
00:37:57.066                : en:8
00:43:38.949                : en:9
00:49:02.939                : en:10
00:53:41.926                : en:11
00:58:13.030                : en:12
01:04:46.006                : en:13
01:09:26.536                : en:14
01:14:37.722                : en:15
01:22:54.427                : en:16
01:29:03.546                : en:17
01:33:11.585                : en:18
01:38:08.381                : en:19
01:40:56.048                : en:20
Ще скріншоти:
Джерело: & &
Переклад та компіляція українських форсованих субтитрів: igor911.

17.05.2018 реліз оновлено з корейського 'у до , додано українські форсовані субтитри на китайську мову.


Золотий реліз (завантажене не впливає на рейтинг)
 Трекер:    Зареєстрований   

Завантажити / скачати фільм українською



відео для новачків



 Зареєстрований:   2018-05-17 22:08
 Розмір:   3.41 GB 
 Оцінка фільму:   8.7/10 (Голосів: 47)
   
Pohikerd 
Частий відвідувач


З нами з: 01.08.15
Востаннє: 17.05.18
Повідомлень: 44

2018-05-16 22:36  
ха, ще й не пройшло місяця як виклали, ну да, це ж вебка, не блюр :-)
Anonymous 







2018-05-17 22:14  
Реліз оновлено з корейського 'у до , додано українські форсовані субтитри на китайську мову.

"золото" на тиждень.

eevviill 
Свій


З нами з: 13.08.08
Востаннє: 25.05.18
Повідомлень: 57

2018-05-23 11:08  
Не допетрав чому оцінка на IMBD така низька.
Фільм сподобався. 8.1

Ваш часовий пояс: GMT + 2 Години

Нова тема   Відповісти