Лего Ніндзяго: Майстри Спінжитсу. Таємні чаї сенсея Ву / LEGO Ninjago: Masters of Spinjitzu (2017) 1080p

Нові коментарі

Нова тема   Відповісти
Автор Повідомлення
sergiyko.5 
Забанено
Забанено


З нами з: 25.02.16
Востаннє: 29.10.20
Повідомлень: 3648

2018-04-19 20:54  
Лего Ніндзяго: Майстри Спінжитсу. Таємні чаї сенсея Ву / LEGO Ninjago: Masters of Spinjitzu (2017) 1080p


Лего Ніндзяго: Майстри Спінжитсу. Таємні чаї сенсея Ву / LEGO Ninjago: Masters of Spinjitzu (2017) 1080p

Жанр: дитячий, пригоди, фентезі
Країна: Данія, Сингапур, Канада, США



Кінокомпанія: LEGO, Wil Film
Режисер: Пітер Хауснер, Мартін Скоу

Сюжет:
Майстри бойових мистецтв, кожен з яких володіє унікальним видом зброї та особливими здібностями. Вони здатні здолати будь-якого ворога. Зі світовим злом постійно борються Кай, Джей, Зейн, Коул, Нія та їхній духовний лідер і вчитель – Сенсей Ву. Кай - стрімко атакує, його зброя меч. У Джея улюблена зброя нунчаки , він швидкий немов блискавка. Хитрість та спостережливість сильні сторони Зейна, користується метальними зірочками. Коул – командир групи, завжди діє на грані можливостей. У Ніє найкраще розвинена інтуїція, проте вона ще й добре володіє вогняними кинджалами. Сенсей Ву – досконалість у всьому, яку намагається передати учням. Хіба всесвітнє зло має шанси на перемогу?


Тривалість: 1 серія: 22:30
Якість:

Відео: кодек: розмір кадру: 1920 х 1080 бітрейт: 1300 кб/с
Аудіо: мова: українська переклад: професійний дубльований кодек: 2.0 бітрейт: 192 кб/с
Джерело озвучення:
Про файл:
General
Unique ID : 28062191558423410193862896414275564707 (0x151C94DD5D3D1428DEE6C167C07E74A3)
Complete name : E:\MULTFILMS\LEGO NINJAGO.Таємні чаї сенсея Ву.1080p..
Format :
Format version : Version 4 / Version 2
File size : 238 MiB
Duration : 22mn 30s
Overall bit rate : 1 477 Kbps
Encoded date : UTC 2018-04-19 17:44:35
Writing application : v22.0.0 ('At The End Of The World') 64-bit
Writing library : libebml v1.3.5 + v1.4.8
DURATION : 00:22:30.016000000
NUMBER_OF_FRAMES : 42188
NUMBER_OF_BYTES : 32400384
_STATISTICS_WRITING_APP : v22.0.0 ('At The End Of The World') 64-bit
_STATISTICS_WRITING_DATE_UTC : 2018-04-19 17:44:35
_STATISTICS_TAGS : BPS DURATION NUMBER_OF_FRAMES NUMBER_OF_BYTES

Video
ID : 1
Format : AVC
Format/Info : Advanced Video Codec
Format profile : [email protected]
Format settings, CABAC : Yes
Format settings, ReFrames : 3 frames
Codec ID : V_MPEG4/ISO/AVC
Duration : 22mn 30s
Bit rate : 1 255 Kbps
Width : 1 920 pixels
Height : 1 080 pixels
Display aspect ratio : 16:9
Frame rate mode : Constant
Frame rate : 25.000 fps
Color space : YUV
Chroma subsampling : 4:2:0
Bit depth : 8 bits
Scan type : Progressive
Bits/(Pixel*Frame) : 0.024
Stream size : 202 MiB (85%)
Title : Таємні чаї сенсея Ву
Language : English
Default : Yes
Forced : No
Color range : Limited
Color primaries : BT.709
Transfer characteristics : BT.709
Matrix coefficients : BT.709

Audio
ID : 2
Format : AC-3
Format/Info : Audio Coding 3
Mode extension : CM (complete main)
Format settings, Endianness : Big
Codec ID : A_AC3
Duration : 22mn 30s
Bit rate mode : Constant
Bit rate : 192 Kbps
Channel(s) : 2 channels
Channel positions : Front: L R
Sampling rate : 48.0 KHz
Compression mode : Lossy
Stream size : 30.9 MiB (13%)
Title : DUB | ПлюсПлюс
Language : Ukrainian
Default : Yes
Forced : No
Скріншоти:




Автор запису/зведення: sergiyko


 Трекер:    Зареєстрований   

Завантажити / скачати мультфільм українською



відео для новачків



 Зареєстрований:   2018-04-19 20:54
 Розмір:   238 MB 
 Оцінка мультсеріалу:   8.9/10 (Голосів: 8)
   
11FrYkT 
Модератор відео


З нами з: 20.02.11
Востаннє: 23.04.21
Повідомлень: 7153

2018-04-21 11:18  
sergiyko.5 , це якась окрема серія? чи мультфільм? якщо то потрібно додати оригінальну доріжку
sergiyko.5 
Забанено
Забанено


З нами з: 25.02.16
Востаннє: 29.10.20
Повідомлень: 3648

2018-04-21 11:38  
11FrYkT
Оригінальної доріжки не знайшов, як і більше інформації. Взагалі то це пілотна серія, між сезонами.

Ваш часовий пояс: GMT + 2 Години

Нова тема   Відповісти