Пожежі / Incendies (2010) 1080p Ukr/Fra/Eng | Sub Ukr/Fra/Eng

Нові коментарі

Нова тема   Відповісти
Автор Повідомлення
omm 
Відео Гуртом - фільмокрай
Відео Гуртом - фільмокрай


З нами з: 12.06.12
Востаннє: 21.02.19
Повідомлень: 2271

2018-04-19 15:34  
Пожежі / Incendies (2010) 1080p Ukr/Fra/Eng | Sub Ukr/Fra/Eng

Пожежі / Incendies (2010) 1080p Ukr/Fra/Eng | Sub Ukr/Fra/Eng


Жанр: драма, детектив, воєнний
Країна: Канада, Франція

Top 250 #131

Кінокомпанія: micro_scope, TS Productions, Phi Group
Режисер: Дені Вільнев / Denis Villeneuve
Актори: Мустафа Камел / Mustafa Kamel, Хусейн Самі / Hussein Sami, Ремі Жирар / Rémy Girard, Мелісса Дезормо-Пулен / Mélissa Désormeaux-Poulin, Максім Ґодетт / Maxim Gaudette, Домінік Бріан / Dominique Briand, Любна Азабаль / Lubna Azabal, Фредерік Паке / Frédéric Paquet, Хамед Майем / Hamed Najem, Ахмад Массад / Ahmad Massad

Сюжет:
Після своєї смерті Наваль Марван заповідає своїм дітям, близнюкам Жані та Сімону, віднайти їхніх батька і брата, про яких вони ніколи нічого не чули. Для того, щоб розгадати сімейні таємниці, їм потрібно вирушити на Середній Схід, Батьківщину матері, землю постійних воєн та безсмертного кохання. Але деякі таємниці краще було б не знати...

Тривалість: 02:10:28
Якість: 1080p (Rutracker)
Відео:
кодек:
розмір кадру: 1920 х 1036
бітрейт: ~13.7 мб/с

Аудіо # 1:
мова: українська
переклад: двоголосий закадровий
кодек: 2.0
бітрейт: 192 кб/с
Фільм перекладено і озвучено на студії Кіт

Аудіо # 2:
мова: французька
переклад: оригінал
кодек: 5.1
бітрейт: 1509 кб/с

Аудіо # 3:
мова: французька
переклад: оригінал
кодек: 5.1
бітрейт: 384 кб/с

Аудіо # 4:
мова: англійська (коментарі)
кодек: 2.0
бітрейт: 192 кб/с

Субтитри:
мова: українська, англійська (форсовані, повні), французька
тип: програмні (м'які)
формат: *.srt
Info
General
Unique ID : 160302653617826864423917052511570174369 (0x78992B07139DD7F826185CE55CC121A1)
Complete name : C:\Users\тарас\Downloads\Incendies (2010) [Ukr,Fre,Eng(comments) Sub-Ukr,Fre,Eng] 1080p [Hurtom].
Format :
Format version : Version 4 / Version 2
File size : 14.5 GiB
Duration : 2 h 10 min
Overall bit rate : 15.9 Mb/s
Movie name : Incendies.2010- Release for HDCLUB
Encoded date : UTC 2018-04-18 20:14:45
Writing application : v19.0.0 ('Brave Captain') 64-bit
Writing library : libebml v1.3.5 + v1.4.8

Video
ID : 1
Format : AVC
Format/Info : Advanced Video Codec
Format profile : [email protected]
Format settings : CABAC / 4 Ref Frames
Format settings, CABAC : Yes
Format settings, RefFrames : 4 frames
Codec ID : V_MPEG4/ISO/AVC
Duration : 2 h 10 min
Bit rate : 13.7 Mb/s
Width : 1 920 pixels
Height : 1 036 pixels
Display aspect ratio : 1.85:1
Frame rate mode : Constant
Frame rate : 23.976 FPS
Color space : YUV
Chroma subsampling : 4:2:0
Bit depth : 8 bits
Scan type : Progressive
Bits/(Pixel*Frame) : 0.286
Stream size : 12.4 GiB (86%)
Title : Release for HDCLUB
Writing library : core 116 r2074 2641b9e
Encoding settings : cabac=1 / ref=4 / deblock=1:-3:-3 / analyse=0x3:0x113 / me=umh / subme=11 / psy=1 / psy_rd=1.00:0.05 / mixed_ref=1 / me_range=48 / chroma_me=1 / trellis=2 / 8x8dct=1 / cqm=0 / deadzone=21,11 / fast_pskip=0 / chroma_qp_offset=-2 / threads=12 / sliced_threads=0 / nr=0 / decimate=1 / interlaced=0 / bluray_compat=0 / constrained_intra=0 / bframes=6 / b_pyramid=2 / b_adapt=2 / b_bias=0 / direct=3 / weightb=1 / open_gop=0 / weightp=2 / keyint=250 / keyint_min=23 / scenecut=40 / intra_refresh=0 / rc_lookahead=60 / rc=2pass / mbtree=1 / bitrate=13657 / ratetol=1.0 / qcomp=0.70 / qpmin=0 / qpmax=69 / qpstep=4 / cplxblur=20.0 / qblur=0.5 / vbv_maxrate=40000 / vbv_bufsize=30000 / nal_hrd=none / ip_ratio=1.40 / aq=2:0.90
Language : English
Default : No
Forced : No

Audio #1
ID : 2
Format : AC-3
Format/Info : Audio Coding 3
Codec ID : A_AC3
Duration : 2 h 10 min
Bit rate mode : Constant
Bit rate : 192 kb/s
Channel(s) : 2 channels
Channel positions : Front: L R
Sampling rate : 48.0 kHz
Frame rate : 31.250 FPS (1536 SPF)
Bit depth : 16 bits
Compression mode : Lossy
Stream size : 179 MiB (1%)
Title : українська (Кіт)
Service kind : Complete Main
Default : Yes
Forced : No

Audio #2
ID : 3
Format :
Format/Info : Digital Theater Systems
Codec ID : A_DTS
Duration : 2 h 10 min
Bit rate mode : Constant
Bit rate : 1 509 kb/s
Channel(s) : 6 channels
Channel positions : Front: L C R, Side: L R, LFE
Sampling rate : 48.0 kHz
Frame rate : 93.750 FPS (512 SPF)
Bit depth : 24 bits
Compression mode : Lossy
Delay relative to video : 11 ms
Stream size : 1.38 GiB (9%)
Title : @5.1 1536 kbps Оригинал
Language : French
Default : No
Forced : No

Audio #3
ID : 4
Format : AC-3
Format/Info : Audio Coding 3
Codec ID : A_AC3
Duration : 2 h 10 min
Bit rate mode : Constant
Bit rate : 384 kb/s
Channel(s) : 6 channels
Channel positions : Front: L C R, Side: L R, LFE
Sampling rate : 48.0 kHz
Frame rate : 31.250 FPS (1536 SPF)
Bit depth : 16 bits
Compression mode : Lossy
Stream size : 358 MiB (2%)
Title : оригінал
Language : French
Service kind : Complete Main
Default : No
Forced : No

Audio #4
ID : 5
Format : AC-3
Format/Info : Audio Coding 3
Codec ID : A_AC3
Duration : 2 h 10 min
Bit rate mode : Constant
Bit rate : 192 kb/s
Channel(s) : 2 channels
Channel positions : Front: L R
Sampling rate : 48.0 kHz
Frame rate : 31.250 FPS (1536 SPF)
Bit depth : 16 bits
Compression mode : Lossy
Stream size : 179 MiB (1%)
Title : @2.0 192 kbps commentary
Language : English
Service kind : Complete Main
Default : No
Forced : No

Text #1
ID : 6
Format : UTF-8
Codec ID : S_TEXT/UTF8
Codec ID/Info : UTF-8 Plain Text
Duration : 2 h 6 min
Bit rate : 8 b/s
Count of elements : 292
Stream size : 8.23 KiB (0%)
Title : Субтитры (forced)
Language : English
Default : No
Forced : No

Text #2
ID : 7
Format : UTF-8
Codec ID : S_TEXT/UTF8
Codec ID/Info : UTF-8 Plain Text
Duration : 2 h 6 min
Bit rate : 24 b/s
Count of elements : 847
Stream size : 22.6 KiB (0%)
Title : Субтитры (full)
Language : English
Default : No
Forced : No

Text #3
ID : 8
Format : UTF-8
Codec ID : S_TEXT/UTF8
Codec ID/Info : UTF-8 Plain Text
Duration : 1 h 59 min
Bit rate : 55 b/s
Count of elements : 1154
Stream size : 49.0 KiB (0%)
Language : Ukrainian
Default : Yes
Forced : No

Text #4
ID : 9
Format : UTF-8
Codec ID : S_TEXT/UTF8
Codec ID/Info : UTF-8 Plain Text
Duration : 2 h 6 min
Bit rate : 34 b/s
Count of elements : 920
Stream size : 31.6 KiB (0%)
Language : French
Default : No
Forced : No

Подяку п. xslim, OlegCena, Sando7 та karvai0 за українську звукову доріжку та п. smisha_ за українські субтитри.
Джерело:


 Трекер:    Зареєстрований   

Завантажити / скачати фільм українською



відео для новачків



 Зареєстрований:   2018-04-19 15:34
 Розмір:   14.52 GB 
 Оцінка фільму:   6.4/10 (Голосів: 14)
   
Інші релізи
   Пожежі / Incendies (2010) 720p Ukr/Fra | Sub Ukr/Fra/Eng leroykendall  6 / 0   6.28 GB   2014-04-23 00:28 
   Пожежі / Incendies (2010) Ukr/Fra | Sub Ukr/Fra/Eng karvai0  13 / 0   2.18 GB   2014-03-26 22:36 
Форкуш 
VIP


З нами з: 03.02.10
Востаннє: 22.02.19
Повідомлень: 2339

2018-04-19 18:25  
Шикарний фільм. Всім завжди раджу. Навіть книгу купив собі...
І-р 
Частий відвідувач


З нами з: 21.07.16
Востаннє: 21.02.19
Повідомлень: 44

2018-04-19 21:36  
Абсолютно неадекватна історія. Мета фільма - викликати ненавість до християнства і християн. Але будь-хто може побачити, що автор взяв образи фанатиків з ІДІЛ, і приписав їх християнам. Мусульмани ж у фільмі - жертви! жертви злих і жорстоких християн. Де таке є у світі? Ганьба!
Ваш часовий пояс: GMT + 2 Години

Нова тема   Відповісти