Червоний горобець / Red Sparrow (2018) 720p Ukr/Eng | Sub Eng — HD українською

Червоний горобець / Red Sparrow (2018) 720p Ukr/Eng | Sub Eng

Нові коментарі

Нова тема   Відповісти
Автор Повідомлення
Anonymous 







2018-04-19 15:59  
Червоний горобець / Red Sparrow (2018) 720p Ukr/Eng | Sub Eng

Червоний горобець / Red Sparrow (2018) 720p Ukr/Eng | Sub Eng


Жанр: детектив, трилер, драма
Країна: США



Кінокомпанія: 20th Century Fox, Chernin Entertainment
Режисер: Френсіс Лоуренс / Francis Lawrence
Актори: Дженіфер Лоуренс / Jennifer Lawrence, Джоел Едґертон / Joel Edgerton, Шарлотта Ремплінґ / Charlotte Rampling, Маттіас Шонартс / Matthias Schoenaerts, Джеремі Айронс / Jeremy Irons, Мері-Луїз Паркер / Mary-Louise Parker, Кьяран Гайндс / Ciarán Hinds, Джоелі Річардсон / Joely Richardson, Дуґлас Годж / Douglas Hodge, Текла Рютен / Thekla Reuten та інші

Сюжет:
Домініку Єгорову (Дженніфер Лоуренс) проти її волі вербують до російської секретної служби як "горобця" - професійної звабниці. Домініка вчиться використовувати своє тіло в якості зброї, але прагне зберегти почуття власної гідності під час проходження цього принизливого вишколу. Перетворившись на знаряддя несправедливої системи, вона стає одним з найцінніших агентів секретної програми. Її першою ціллю є Нат Неш (Джоел Едґертон), офіцер ЦРУ, відповідальний за проникнення американських "кротів" до російської розвідки. Між двома молодими людьми зав'язуються складні стосунки, які загрожують безпеці обох країн.
Офіційні українські трейлери та промо:

трейлер №1:


трейлер №2:


промо №1:


промо №2:


промо №3:

Рейтинг MPAA: R - особам до 17 років обов'язкова присутність батьків або дорослого опікуна
Вікова категорія: 16+
Тривалість: 02:20:13
Якість: 720p
Відео:
кодек:
розмір кадру: 1280 х 534
бітрейт: 3418 кб/с [crf=17]

Аудіо # 1:
мова: українська
переклад: професійний дубльований | студія Postmodern
кодек: 5.1
бітрейт: 448 кб/с
Інформація про дубляж
Режисер дубляжу: Людмила Петриченко
Ролі дублювали: Домініка Юлія Перенчук, Іван Роман Чорний, Матрон Ольга Радчук, Ніна Наталя Задніпровська, Нейт – Кирило Нікітенко, Марті Євген Пашин, Марта – Людмила Петриченко, Устінов Михайло Войчук, Тріш Лариса Руснак, Захаров Володимир Нечепоренко, Генерал КорчнийЮрій Гребельник
Аудіо # 2:
мова: англійська
переклад: оригінал
кодек: 5.1
бітрейт: 640 кб/с

Субтитри # 1-3:
мова: англійська (повні, SDH, SDH кольорові)
тип: програмні (м'які)
формат: *.srt

Збережено оригінальні розділи, як на Blu-ray
Info
Код:
Complete name               : Red Sparrow (2018) [Ukr,Eng sub.Eng] 720p [Hurtom].
Format                      :
Format version              : Version 4 / Version 2
File size                   : 4.42 GiB
Duration                    : 2 h 20 min
Overall bit rate            : 4 509 kb/s
Movie name                  : Червоний горобець / Red Sparrow (2018) [Ukr,Eng sub.Eng] 720p [Hurtom]
Released date               : 2018
Encoded date                : UTC 2018-05-12 09:20:36
Writing application         : v23.0.0 ('The Bride Said No') 64-bit
Writing library             : libebml v1.3.6 + v1.4.9
Cover                       : Yes
Comment                     : http://www.imdb.com/title/tt2873282/
Attachments                 : cover.jpg
ARTIST                      : Дженіфер Лоуренс / Jennifer Lawrence, Джоел Едґертон / Joel Edgerton, Шарлотта Ремплінґ / Charlotte Rampling, Маттіас Шонартс / Matthias Schoenaerts, Джеремі Айронс / Jeremy Irons, Мері-Луїз Паркер / Mary-Louise Parker, Кьяран Гайндс / Ciarán Hinds, Джоелі Річардсон / Joely Richardson, Дуґлас Годж / Douglas Hodge, Текла Рютен / Thekla Reuten та інші
DIRECTOR                    : Френсіс Лоуренс / Francis Lawrence
GENRE                       : детектив, трилер, драма
SYNOPSIS                    : Домініку Єгорову (Дженніфер Лоуренс) проти її волі вербують до російської секретної служби у якості "горобця" - професійної звабниці. Домініка вчиться використовувати своє тіло в якості зброї, але прагне зберегти почуття власної гідності під час проходження цього принизливого вишколу. Перетворившись на знаряддя несправедливої системи, вона стає одним з найцінніших агентів секретної програми. Її першою ціллю є Нат Неш (Джоел Едґертон), офіцер ЦРУ, відповідальний за проникнення американських "кротів" до російської розвідки. Між двома молодими людьми зав'язуються складні стосунки, які загрожують безпеці обох країн...
Url                         : https://toloka.to/t89454

Video
ID                          : 1
Format                      : AVC
Format/Info                 : Advanced Video Codec
Format profile              : [email protected]
Format settings             : CABAC / 12 Ref Frames
Format settings, CABAC      : Yes
Format settings, ReFrames   : 12 frames
Codec ID                    : V_MPEG4/ISO/AVC
Duration                    : 2 h 20 min
Bit rate                    : 3 418 kb/s
Width                       : 1 280 pixels
Height                      : 534 pixels
Display aspect ratio        : 2.40:1
Frame rate mode             : Constant
Frame rate                  : 23.976 (24000/1001) FPS
Color space                 : YUV
Chroma subsampling          : 4:2:0
Bit depth                   : 8 bits
Scan type                   : Progressive
Bits/(Pixel*Frame)          : 0.209
Stream size                 : 3.35 GiB (76%)
Title                       : Червоний горобець / Red Sparrow (2018) 720p [ExKinoRay]
Writing library             : core 155 r2901 7d0ff22
Encoding settings           : cabac=1 / ref=12 / deblock=1:-3:-3 / analyse=0x3:0x113 / me=umh / subme=10 / psy=1 / psy_rd=1.00:0.05 / mixed_ref=1 / me_range=32 / chroma_me=1 / trellis=2 / 8x8dct=1 / cqm=0 / deadzone=21,11 / fast_pskip=0 / chroma_qp_offset=-2 / threads=12 / lookahead_threads=2 / sliced_threads=0 / nr=0 / decimate=1 / interlaced=0 / bluray_compat=0 / constrained_intra=0 / bframes=8 / b_pyramid=2 / b_adapt=2 / b_bias=0 / direct=3 / weightb=1 / open_gop=0 / weightp=2 / keyint=250 / keyint_min=23 / scenecut=40 / intra_refresh=0 / rc_lookahead=40 / rc=crf / mbtree=0 / crf=17.0 / qcomp=0.60 / qpmin=0 / qpmax=69 / qpstep=4 / vbv_maxrate=30000 / vbv_bufsize=30000 / crf_max=0.0 / nal_hrd=none / filler=0 / ip_ratio=1.40 / pb_ratio=1.30 / aq=3:1.00
Language                    : English
Default                     : Yes
Forced                      : No
Color range                 : Limited
Matrix coefficients         : BT.709

Audio #1
ID                          : 2
Format                      : AC-3
Format/Info                 : Audio Coding 3
Codec ID                    : A_AC3
Duration                    : 2 h 20 min
Bit rate mode               : Constant
Bit rate                    : 448 kb/s
Channel(s)                  : 6 channels
Channel positions           : Front: L C R, Side: L R, LFE
Sampling rate               : 48.0 kHz
Frame rate                  : 31.250 FPS (1536 SPF)
Bit depth                   : 16 bits
Compression mode            : Lossy
Stream size                 : 449 MiB (10%)
Title                       : Dub [Postmodern, Blu-ray] 5.1 448 Kbps
Language                    : Ukrainian
Service kind                : Complete Main
Default                     : Yes
Forced                      : Yes

Audio #2
ID                          : 3
Format                      : AC-3
Format/Info                 : Audio Coding 3
Codec ID                    : A_AC3
Duration                    : 2 h 20 min
Bit rate mode               : Constant
Bit rate                    : 640 kb/s
Channel(s)                  : 6 channels
Channel positions           : Front: L C R, Side: L R, LFE
Sampling rate               : 48.0 kHz
Frame rate                  : 31.250 FPS (1536 SPF)
Bit depth                   : 16 bits
Compression mode            : Lossy
Stream size                 : 642 MiB (14%)
Title                       : Original, 5.1 640 Kbps
Language                    : English
Service kind                : Complete Main
Default                     : No
Forced                      : No

Text #1
ID                          : 4
Format                      : UTF-8
Codec ID                    : S_TEXT/UTF8
Codec ID/Info               : UTF-8 Plain Text
Duration                    : 2 h 11 min
Bit rate                    : 47 b/s
Count of elements           : 1599
Stream size                 : 46.1 KiB (0%)
Title                       : Eng Full
Language                    : English
Default                     : No
Forced                      : No

Text #2
ID                          : 5
Format                      : UTF-8
Codec ID                    : S_TEXT/UTF8
Codec ID/Info               : UTF-8 Plain Text
Duration                    : 2 h 12 min
Bit rate                    : 51 b/s
Count of elements           : 1777
Stream size                 : 50.4 KiB (0%)
Title                       : Eng SDH
Language                    : English
Default                     : No
Forced                      : No

Text #3
ID                          : 6
Format                      : UTF-8
Codec ID                    : S_TEXT/UTF8
Codec ID/Info               : UTF-8 Plain Text
Duration                    : 2 h 12 min
Bit rate                    : 63 b/s
Count of elements           : 1777
Stream size                 : 61.9 KiB (0%)
Title                       : Eng SDH Colored
Language                    : English
Default                     : No
Forced                      : No

Menu
00:00:00.000                : en:00:00:00.000
00:08:00.105                : en:00:08:00.105
00:11:31.983                : en:00:11:31.983
00:16:57.183                : en:00:16:57.183
00:21:09.643                : en:00:21:09.643
00:27:21.265                : en:00:27:21.265
00:33:03.356                : en:00:33:03.356
00:38:09.245                : en:00:38:09.245
00:42:29.130                : en:00:42:29.130
00:46:41.799                : en:00:46:41.799
00:54:14.334                : en:00:54:14.334
00:58:45.480                : en:00:58:45.480
01:04:55.266                : en:01:04:55.266
01:10:26.139                : en:01:10:26.139
01:16:28.250                : en:01:16:28.250
01:26:44.699                : en:01:26:44.699
01:32:06.938                : en:01:32:06.938
01:36:22.443                : en:01:36:22.443
01:41:53.149                : en:01:41:53.149
01:49:48.415                : en:01:49:48.415
01:53:45.610                : en:01:53:45.610
01:58:52.083                : en:01:58:52.083
02:07:20.132                : en:02:07:20.132
02:13:40.095                : en:02:13:40.095


Джерело: &

12.05.2018 реліз оновлено - замінено українську доріжку з на ліцензію 5.1 з та відеоряд на


 Трекер:    Зареєстрований   

Завантажити / скачати фільм українською



відео для новачків



 Зареєстрований:   2018-05-12 12:35
 Розмір:   4.42 GB 
 Оцінка фільму:   8.8/10 (Голосів: 53)
   
Інші релізи
waldi-hurtom 
VIP


З нами з: 07.10.12
Востаннє: 14.08.18
Повідомлень: 794

2018-04-22 22:37  
Типовий фільм за сценарієм 7в чи який там є код в Голівуді про фсб чи гру. Не краще і не так вже погано. Купа дурнуватих кліше - похмурі сірі безлюдні міста. Трохи переплутали мацкву з провінційними містами. Можливо, сценарист читав Жар-птицю Суворова, але вийшло досить слабенько. Власне, розрахунок робиться на тих, хто ходить в американський кінотеатр і платить. Ці філософи звикли до певних кліше, щоб не трапився винос мізків хай так усе й продовжується. 6 з 10, лише за те, що тримає увагу.
Estranded 
VIP


З нами з: 09.02.14
Востаннє: 15.08.18
Повідомлень: 1183

2018-05-07 12:10  
Тримає в напрузі
Фільм дуже сподобався, перш за все, своєю атмфосферністю. Сценарій прописаний детально, хоч якихось крутих зворотів і не має, однак дивитися дуже цікаво. Вся ця сіра атмосфера, будні, обдерті будинки - додає якоїсь родзинки. Гарно показали Будапешт і Відень, робота операторів дуже якісна, люблю насолоджуватися картинкою. Актори відіграли на всі 100%! Дженніфер вже довела, що вона дійсно крута акторка. Черговий фільм, де вона віддалася ролі повністю.

8/10 — вартує перегляду

Anonymous 







2018-05-12 12:38  
Реліз оновлено - замінено українську доріжку з на ліцензію 5.1 з та відеоряд на

Додано через 1 хвилину 24 секунди:

"золото" на тиждень для заохочення підтримки

pallance 
Новенький


З нами з: 28.10.10
Востаннє: 06.08.18
Повідомлень: 2

2018-05-13 04:52  
Повне голівудських кліше про росію: балет, хрестяться, якісь нечувано розкішні ресторані чи готелі ...
І як на шпиґунське кіно, то досить примітивне. Шкода, бо я сподівався на шось як сюжет Суворовської жар-птиці

demetrius52 
Поважний учасник


З нами з: 02.04.17
Востаннє: 15.08.18
Повідомлень: 246

2018-05-14 17:57  
гола Лоуренс - треба глянути)
Ваш часовий пояс: GMT + 2 Години

Нова тема   Відповісти