Той, що біжить лабіринтом: Ліки від смерті / Maze Runner: The Death Cure (2018) Remux 1080p Ukr/Eng | Sub Ukr/Eng

Нові коментарі

Нова тема   Відповісти
Автор Повідомлення
staf777 
Попереджень: 1
Попереджень: 1 


З нами з: 16.11.16
Востаннє: 23.05.18
Повідомлень: 1019

2018-04-18 17:34  
Той, що біжить лабіринтом: Ліки від смерті / Maze Runner: The Death Cure (2018) Remux 1080p Ukr/Eng | Sub Ukr/Eng


«Кожен лабіринт має свій кінець»

Жанр: бойовик, пригоди, трилер, фантастика
Країна: США



Кінокомпанія: Gotham Group, Temple Hill Entertainment, Twentieth Century Fox See
Режисер: Вес Болл
Актори: Ділан О’Брайєн, Томас Броді Сенгстер, Роза Салазар, Кая Скоделаріо, Лі Гі-хон, Волтон Гоггінс, Кетрін МакНамара, Ейден Ґіллен, Наталі Еммануель, Патриція Кларксон та інші

Сюжет:
Томас (Ділан О’Брайєн) разом з іншими мешканцями лабіринту дізнається, що вірус, який вразив населення планети, виліковний. Тепер мета юнаків дізнатися істинну ціль побудови Лабіринту. Саме це допоможе їм вибратися на свободу та спробувати врятувати людство. Вони збираються на чергову вилазку в лабіринт, яка у будь-якому випадку має стати для кожного з них останньою.


Тривалість: 02:23:52
Якість: Remux 1080p
Відео:
кодек:
розмір кадру: 1920x1080
бітрейт: 23,4 Мб/с

Аудіо # 1:
мова: українська
переклад: професійний дубльований | студія Postmodern
кодек: 5.1
бітрейт: 448 кб/с

Аудіо # 2:
мова: англійська
переклад: оригінал
кодек: -HD MA 7.1
бітрейт: 5120 кб/с

Субтитри # 1-2:
мова: українська (Full, Forced)
тип: програмні (м'які)
формат: *.srt

Субтитри # 3-4:
мова: англійська (Full, SHD)
тип: програмні (м'які)
формат: *.srt
Info
Код:
General
Unique ID                   : 216070735864318923124937823942228351768 (0xA28DB5C49236C5BFB4F963DD97B09B18)
Complete name               : H:\» HD українською » Фільми в HD\Фантастика\Maze Runner The Death Cure (2018) Remux 1080p [UKR_ENG] [Hurtom] (1).
Format                      :
Format version              : Version 4 / Version 2
File size                   : 29.1 GiB
Duration                    : 2 h 23 min
Overall bit rate mode       : Variable
Overall bit rate            : 28.9 Mb/s
Movie name                  : Maze Runner: The Death Cure (2018) Remux 1080p [UKR_ENG] [Hurtom]
Encoded date                : UTC 2018-04-30 13:17:11
Writing application         : v9.8.0 ('Kuglblids') 64bit
Writing library             : libebml v1.3.4 + v1.4.5
Cover                       : Yes
Attachments                 : cover.jpg

Video
ID                          : 1
Format                      : AVC
Format/Info                 : Advanced Video Codec
Format profile              : [email protected]
Format settings             : CABAC / 2 Ref Frames
Format settings, CABAC      : Yes
Format settings, ReFrames   : 2 frames
Codec ID                    : V_MPEG4/ISO/AVC
Duration                    : 2 h 23 min
Bit rate mode               : Variable
Bit rate                    : 23.4 Mb/s
Width                       : 1 920 pixels
Height                      : 1 080 pixels
Display aspect ratio        : 16:9
Frame rate mode             : Constant
Frame rate                  : 23.976 (24000/1001) FPS
Color space                 : YUV
Chroma subsampling          : 4:2:0
Bit depth                   : 8 bits
Scan type                   : Progressive
Bits/(Pixel*Frame)          : 0.470
Stream size                 : 23.5 GiB (81%)
Title                       : Maze Runner The Death Cure.2018.Remux.1080p.NNMClub
Language                    : English
Default                     : Yes
Forced                      : No

Audio #1
ID                          : 2
Format                      : AC-3
Format/Info                 : Audio Coding 3
Codec ID                    : A_AC3
Duration                    : 2 h 23 min
Bit rate mode               : Constant
Bit rate                    : 448 kb/s
Channel(s)                  : 6 channels
Channel positions           : Front: L C R, Side: L R, LFE
Sampling rate               : 48.0 kHz
Frame rate                  : 31.250 FPS (1536 SPF)
Bit depth                   : 16 bits
Compression mode            : Lossy
Stream size                 : 461 MiB (2%)
Title                       : студія Postmodern
Language                    : Ukrainian
Service kind                : Complete Main
Default                     : Yes
Forced                      : Yes

Audio #2
ID                          : 3
Format                      :
Format/Info                 : Digital Theater Systems
Format profile              : MA / Core
Codec ID                    : A_DTS
Duration                    : 2 h 23 min
Bit rate mode               : Variable / Constant
Bit rate                    : 5 120 kb/s / 1 509 kb/s
Channel(s)                  : 8 channels / 6 channels
Channel positions           : Front: L C R, Side: L R, Back: L R, LFE / Front: L C R, Side: L R, LFE
Sampling rate               : 48.0 kHz
Frame rate                  : 93.750 FPS (512 SPF)
Bit depth                   : 24 bits
Compression mode            : Lossless / Lossy
Stream size                 : 5.15 GiB (18%)
Language                    : English
Default                     : No
Forced                      : No

Text #1
ID                          : 4
Format                      : UTF-8
Codec ID                    : S_TEXT/UTF8
Codec ID/Info               : UTF-8 Plain Text
Duration                    : 2 h 20 min
Bit rate                    : 49 b/s
Count of elements           : 1397
Stream size                 : 50.4 KiB (0%)
Title                       : Full
Language                    : Ukrainian
Default                     : No
Forced                      : No

Text #2
ID                          : 5
Format                      : UTF-8
Codec ID                    : S_TEXT/UTF8
Codec ID/Info               : UTF-8 Plain Text
Duration                    : 2 h 19 min
Bit rate                    : 0 b/s
Count of elements           : 8
Stream size                 : 258 Bytes (0%)
Title                       : Forced
Language                    : Ukrainian
Default                     : Yes
Forced                      : Yes

Text #3
ID                          : 6
Format                      : UTF-8
Codec ID                    : S_TEXT/UTF8
Codec ID/Info               : UTF-8 Plain Text
Duration                    : 2 h 15 min
Bit rate                    : 35 b/s
Count of elements           : 1475
Stream size                 : 35.5 KiB (0%)
Title                       : Full
Language                    : English
Default                     : No
Forced                      : No

Text #4
ID                          : 7
Format                      : UTF-8
Codec ID                    : S_TEXT/UTF8
Codec ID/Info               : UTF-8 Plain Text
Duration                    : 2 h 15 min
Bit rate                    : 40 b/s
Count of elements           : 1688
Stream size                 : 40.6 KiB (0%)
Title                       : SDH
Language                    : English
Default                     : No
Forced                      : No

Menu
00:00:00.000                : en:Chapter 1
00:11:31.607                : en:Chapter 2
00:15:59.750                : en:Chapter 3
00:20:08.457                : en:Chapter 4
00:24:34.890                : en:Chapter 5
00:30:40.547                : en:Chapter 6
00:36:47.330                : en:Chapter 7
00:43:15.342                : en:Chapter 8
00:48:06.341                : en:Chapter 9
00:55:17.397                : en:Chapter 10
01:02:42.925                : en:Chapter 11
01:07:14.488                : en:Chapter 12
01:11:56.061                : en:Chapter 13
01:15:48.210                : en:Chapter 14
01:23:20.328                : en:Chapter 15
01:29:45.421                : en:Chapter 16
01:34:00.593                : en:Chapter 17
01:40:09.795                : en:Chapter 18
01:43:33.081                : en:Chapter 19
01:53:38.645                : en:Chapter 20
01:59:43.885                : en:Chapter 21
02:04:49.398                : en:Chapter 22
02:10:03.086                : en:Chapter 23
02:18:03.858                : en:Chapter 24
Джерело:


Золотий реліз (завантажене не впливає на рейтинг)
 Трекер:    Зареєстрований   

Завантажити / скачати фільм українською



відео для новачків



 Зареєстрований:   2018-04-30 17:10
 Розмір:   29.07 GB 
 Оцінка фільму:   7.7/10 (Голосів: 19)
   
jloohatik 
Частий відвідувач


З нами з: 10.09.11
Востаннє: 21.05.18
Повідомлень: 32

2018-04-19 12:09  
Дивився в англ щоб зловити кайф від 7.1
Дуже круто. Дякую за якість і роздачу.

Якщо бути відвертим (спойлер) то мене дуже вибісило те ставлення Томаса до Терези навіть після її наглої зради. Взагалі персонаж Терези такий ніби доданий спеціально десь посередині роману (типу костиля в коді) щоб закрити пробіли...

staf777 
Попереджень: 1
Попереджень: 1 


З нами з: 16.11.16
Востаннє: 23.05.18
Повідомлень: 1019

2018-04-30 17:11  
30.04.2018 Роздачу оновлено! звук 
Uberwinder 
VIP


З нами з: 18.11.16
Востаннє: 24.05.18
Повідомлень: 261

2018-05-01 08:33  
Дякую за оновлення!
takispravi 
Частий відвідувач


З нами з: 24.10.13
Востаннє: 22.05.18
Повідомлень: 25

2018-05-07 08:51  
на жаль, я переріс такі фільми. сюжет цікавий, але гра акторів на трієчку з п"яти.

вдруге переглядати не буду, радити для перегляду також, хоча на роздачі ще деякий час побуду, поки є місце на ЖД

Свирид Опанасович 
Новенький


З нами з: 30.01.17
Востаннє: 17.05.18
Повідомлень: 3

2018-05-09 22:26  
Убого, дуже убого, єдине, що витягує - це графіка.
Ваш часовий пояс: GMT + 2 Години

Нова тема   Відповісти