Брейвен / Braven (2018) 1080p H.265 Ukr/Eng | Sub Eng

Нові коментарі

Нова тема   Відповісти
Автор Повідомлення
ukr_anonymous 
Попереджень: 1
Попереджень: 1 


З нами з: 17.04.18
Востаннє: 19.10.18
Повідомлень: 222

2018-04-18 15:15  
Брейвен / Braven (2018) 1080p H.265 Ukr/Eng | Sub Eng

Брейвен / Braven (2018) 1080p H.265 Ukr/Eng | Sub Eng

Жанр: бойовик, драма
Країна: Канада



Кінокомпанія: Pride of Gypsies, Braven NL, Hassell Free Production, Ingenious Media
Режисер: Лін Одінґ
Актори: Джейсон Момоа, Джилл Ваґнер, Занн МакКларнон, Ґаррет Діллагант, Стівен Ленґ, Брендан Флетчер, Саша Россоф, Сала Бейкер, Тіч Ґрант, Тай Александер та інші

Сюжет:
Джо Брейвен (Джейсон Момоа), колишній військовий, разом із родиною живе далеко у горах на кордоні США та Канади. Він має бізнес, пов'язаний з вирубкою лісу та найманих робітників. А щовечора вдома на нього чекають любляча дружина та маленька донька. На вихідні Джо запланував зі своїм батьком (Стівен Ленг) поїздку до свого мисливського будиночку. На батька та сина тут чекає цікава знахідка – непрохані гості, серед яких дехто з підлеглих Джо, залишили у будинку небезпечний вантаж, велику партію наркотиків. Замість спокійного вікенду на сім’ю Брейвен чекає справжня війна із наркоторгівцями.


Тривалість: 01:33:36
Якість:
Відео:
кодек: H.265 (HEVC)
розмір кадру: 1920 х 816
бітрейт: 4 944 кб/с
бітова глибина: 8 біт
Увага! Перед завантаженням переконайтесь, що ваш пристрій відтворення (та/або ПЗ) підтримують H.265 (HEVC) та 10 біт

Аудіо # 1:
мова: українська
переклад: професійний дубльований
кодек: 2.0
бітрейт: 192 кб/с

Аудіо # 2:
мова: англійська
переклад: оригінал
кодек: 5.1
бітрейт: 640 кб/с

Субтитри # 1-2:
мова: англійська (Full, SDH)
тип: програмні (м'які)
формат: *.srt
Info
General
Unique ID : 133777176817522890685694270383229133002 (0x64A48C0CD5BD4730C0B3307BC34660CA)
Complete name : D:\Video\Braven (2018) 1080p H.265 [UKR_ENG].
Format :
Format version : Version 4 / Version 2
File size : 3.78 GiB
Duration : 1 h 33 min
Overall bit rate : 5 778 kb/s
Encoded date : UTC 2018-04-18 12:09:57
Writing application : v22.0.0 ('At The End Of The World') 64-bit
Writing library : libebml v1.3.5 + v1.4.8
Cover : Yes
Attachments : cover

Video
ID : 1
Format : HEVC
Format/Info : High Efficiency Video Coding
Format profile : [email protected]@Main
Codec ID : V_MPEGH/ISO/HEVC
Duration : 1 h 33 min
Bit rate : 4 944 kb/s
Width : 1 920 pixels
Height : 816 pixels
Display aspect ratio : 2.35:1
Frame rate mode : Constant
Frame rate : 23.976 (23976/1000) FPS
Original frame rate : 23.976 (24000/1001) FPS
Color space : YUV
Chroma subsampling : 4:2:0
Bit depth : 8 bits
Bits/(Pixel*Frame) : 0.132
Stream size : 3.23 GiB (86%)
Writing library : x265 2.1:[Windows][GCC 5.3.1][64 bit] 8bit
Encoding settings : wpp / ctu=64 / min-cu-size=8 / max-tu-size=32 / tu-intra-depth=1 / tu-inter-depth=1 / me=3 / subme=3 / merange=57 / no-rect / no-amp / max-merge=3 / temporal-mvp / no-early-skip / rskip / rdpenalty=0 / no-tskip / no-tskip-fast / no-strong-intra-smoothing / no-lossless / no-cu-lossless / no-constrained-intra / no-fast-intra / open-gop / no-temporal-layers / interlace=0 / keyint=240 / min-keyint=24 / scenecut=40 / rc-lookahead=25 / lookahead-slices=4 / bframes=4 / bframe-bias=0 / b-adapt=2 / ref=4 / limit-refs=3 / limit-modes / no-weightp / no-weightb / aq-mode=1 / qg-size=32 / aq-strength=1.00 / cbqpoffs=0 / crqpoffs=0 / rd=4 / psy-rd=2.00 / rdoq-level=2 / psy-rdoq=1.00 / log2-max-poc-lsb=8 / no-rd-refine / signhide / no-deblock / no-sao / no-sao-non-deblock / b-pyramid / cutree / no-intra-refresh / rc=abr / bitrate=5000 / qcomp=0.60 / qpmin=0 / qpmax=69 / qpstep=4 / ipratio=1.40 / pbratio=1.30
Default : Yes
Forced : No
Color range : Limited
Color primaries : BT.709
Transfer characteristics : BT.709
Matrix coefficients : BT.709

Audio #1
ID : 2
Format : AC-3
Format/Info : Audio Coding 3
Codec ID : A_AC3
Duration : 1 h 33 min
Bit rate mode : Constant
Bit rate : 192 kb/s
Channel(s) : 2 channels
Channel positions : Front: L R
Sampling rate : 48.0 kHz
Frame rate : 31.250 FPS (1536 SPF)
Bit depth : 16 bits
Compression mode : Lossy
Delay relative to video : -5 ms
Stream size : 129 MiB (3%)
Title : Megogo 2.0 @ 192 kbps
Language : Ukrainian
Service kind : Complete Main
Default : No
Forced : Yes

Audio #2
ID : 3
Format : AC-3
Format/Info : Audio Coding 3
Codec ID : A_AC3
Duration : 1 h 33 min
Bit rate mode : Constant
Bit rate : 640 kb/s
Channel(s) : 6 channels
Channel positions : Front: L C R, Side: L R, LFE
Sampling rate : 48.0 kHz
Frame rate : 31.250 FPS (1536 SPF)
Bit depth : 16 bits
Compression mode : Lossy
Delay relative to video : -5 ms
Stream size : 429 MiB (11%)
Title : Original, 5.1 640 Kbps
Language : English
Service kind : Complete Main
Default : No
Forced : No

Text #1
ID : 4
Format : UTF-8
Codec ID : S_TEXT/UTF8
Codec ID/Info : UTF-8 Plain Text
Duration : 1 h 24 min
Bit rate : 33 b/s
Count of elements : 752
Stream size : 20.5 KiB (0%)
Title : Eng full
Language : English
Default : No
Forced : No

Text #2
ID : 5
Format : UTF-8
Codec ID : S_TEXT/UTF8
Codec ID/Info : UTF-8 Plain Text
Duration : 1 h 24 min
Bit rate : 36 b/s
Count of elements : 877
Stream size : 22.5 KiB (0%)
Title : Eng SDH
Language : English
Default : No
Forced : No

Menu
00:00:00.000 : en:00:00:00.000
00:14:01.591 : en:00:14:01.591
00:28:18.572 : en:00:28:18.572
00:41:32.990 : en:00:41:32.990
00:50:55.302 : en:00:50:55.302
01:03:18.211 : en:01:03:18.211
01:19:35.562 : en:01:19:35.562
01:29:20.313 : en:01:29:20.313
Скріншоти



Джерело:
Особиста оцінка: 6 - третій сорт - не брак


 Трекер:    Зареєстрований   

Завантажити / скачати фільм українською



відео для новачків



 Зареєстрований:   2018-04-18 15:15
 Розмір:   3.78 GB 
 Оцінка фільму:   7.4/10 (Голосів: 10)
   
Інші релізи
   Брейвен / Braven (2018) Remux 1080p Ukr/Eng | Sub Eng igor911  2 / 0   16.02 GB   2018-04-04 10:01 
   Брейвен / Braven (2018) 720p Ukr/Eng | Sub Eng igor911  6 / 0   3.69 GB   2018-04-04 09:11 
   Брейвен / Braven (2018) 1080p Ukr/Eng | Sub Eng Electroz  6 / 0   6.15 GB   2018-04-03 22:47 
   Брейвен / Braven (2018) AVC Ukr/Eng | Sub Eng 11FrYkT  23 / 4   1.45 GB   2018-04-03 22:35 
   Брейвен / Braven (2018) Ukr/Eng Covenant  11 / 4   1.45 GB   2018-03-09 21:24 
Cоломон Kейн 
Забанено
Забанено


З нами з: 10.04.18
Востаннє: 04.05.18
Повідомлень: 19

2018-04-18 15:25  
Фільм цікавий, але шаблонний і
Обережно! Спойлер

діда можна було не вбивати

Ваш часовий пояс: GMT + 2 Години

Нова тема   Відповісти