Зоряні війни: Останні Джедаї / Star Wars: Episode VIII - The Last Jedi (2017) Remux 1080p Ukr/Eng | Sub Eng

Нові коментарі

Нова тема   Відповісти
Автор Повідомлення
IronBee 
Свій


З нами з: 08.02.10
Востаннє: 19.04.18
Повідомлень: 148

2018-04-17 23:18  
Зоряні війни: Останні Джедаї / Star Wars: Episode VIII - The Last Jedi (2017) Remux 1080p Ukr/Eng | Sub Eng

Зоряні війни: Останні Джедаї / Star Wars: Episode VIII - The Last Jedi (2017) Remux 1080p Ukr/Eng | Sub Eng


Жанр: бойовик, пригоди, фантастика, фентезі
Країна: США



Кінокомпанія: Walt Disney Pictures, Lucasfilm Ltd.
Режисер: Раян Джонсон
Актори: Марк Хемілл, Дейзі Рідлі, Джон Боєґа, Оскар Айзек, Адам Драйвер, Керрі Фішер, Енді Серкіс, Донал Ґлісон, Келлі Марі Трен, Ентоні Деніелс та інші

Сюжет:
Найзнаковіша франшиза усіх часів продовжується! Баланс Сили порушено і міжгалактичний конфлікт набирає нових обертів. На Рей, Фінна та дроїда БіБі-8 чекає жорстоке протистояння…


Тривалість: 02:31:51
Якість: Remux
Відео:
кодек:
розмір кадру: 1920 х 1080
бітрейт: 30,7 Mб/с

Аудіо # 1:
мова: українська | iTunes, студія LeDoyen
переклад: професійний дубльований
кодек: 2.0 [stereo]
бітрейт: 192 кб/с

Аудіо # 2:
мова: англійська
переклад: оригінал
кодек: -HD MA 7.1
бітрейт: 4629 кб/с

Аудіо # 3:
мова: англійська
переклад: коментарі
кодек: 2.0
бітрейт: 192 кб/с

Субтитри # 1:
мова: українська (форсовані)
тип: програмні (м'які)
формат: *.srt by Electroz

Субтитри # 2-3:
мова: англійська (повні, SDH)
тип: пререндерні
формат: *.PGS
Info
General
Unique ID : 7250308304722787101783562201597280223 (0x5745BCC5BBAE60F2CF1CF64BFF4FFDF)
Complete name : D:\Films\Star Wars Episode VIII - The Last Jedi (2017) Remux 1080p Ukr Eng sub Eng [Hurtom].
Format :
Format version : Version 4 / Version 2
File size : 37.9 GiB
Duration : 2 h 31 min
Overall bit rate mode : Variable
Overall bit rate : 35.8 Mb/s
Encoded date : UTC 2018-04-17 18:41:54
Writing application : mkvmerge v22.0.0 ('At The End Of The World') 64-bit
Writing library : libebml v1.3.5 + libmatroska v1.4.8

Video
ID : 1
Format : AVC
Format/Info : Advanced Video Codec
Format profile : [email protected]
Format settings : CABAC / 4 Ref Frames
Format settings, CABAC : Yes
Format settings, ReFrames : 4 frames
Codec ID : V_MPEG4/ISO/AVC
Duration : 2 h 31 min
Bit rate mode : Variable
Bit rate : 30.7 Mb/s
Maximum bit rate : 37.0 Mb/s
Width : 1 920 pixels
Height : 1 080 pixels
Display aspect ratio : 16:9
Frame rate mode : Constant
Frame rate : 23.976 (24000/1001) FPS
Color space : YUV
Chroma subsampling : 4:2:0
Bit depth : 8 bits
Scan type : Progressive
Bits/(Pixel*Frame) : 0.618
Stream size : 32.6 GiB (86%)
Default : Yes
Forced : No

Audio #1
ID : 2
Format : AC-3
Format/Info : Audio Coding 3
Codec ID : A_AC3
Duration : 2 h 31 min
Bit rate mode : Constant
Bit rate : 192 kb/s
Channel(s) : 2 channels
Channel positions : Front: L R
Sampling rate : 48.0 kHz
Frame rate : 31.250 FPS (1536 SPF)
Bit depth : 16 bits
Compression mode : Lossy
Stream size : 209 MiB (1%)
Title : 2.0 @ 192 kbps - DUB, iTunes
Language : Ukrainian
Service kind : Complete Main
Default : Yes
Forced : No

Audio #2
ID : 3
Format :
Format/Info : Digital Theater Systems
Format profile : MA / Core
Codec ID : A_DTS
Duration : 2 h 31 min
Bit rate mode : Variable / Constant
Bit rate : 4 629 kb/s / 1 509 kb/s
Channel(s) : 8 channels / 6 channels
Channel positions : Front: L C R, Side: L R, Back: L R, LFE / Front: L C R, Side: L R, LFE
Sampling rate : 48.0 kHz
Frame rate : 93.750 FPS (512 SPF)
Bit depth : 24 bits
Compression mode : Lossless / Lossy
Stream size : 4.91 GiB (13%)
Language : English
Default : No
Forced : No

Audio #3
ID : 4
Format : AC-3
Format/Info : Audio Coding 3
Codec ID : A_AC3
Duration : 2 h 31 min
Bit rate mode : Constant
Bit rate : 192 kb/s
Channel(s) : 2 channels
Channel positions : Front: L R
Sampling rate : 48.0 kHz
Frame rate : 31.250 FPS (1536 SPF)
Bit depth : 16 bits
Compression mode : Lossy
Stream size : 209 MiB (1%)
Language : English
Service kind : Complete Main
Default : No
Forced : No

Text #1
ID : 5
Format : UTF-8
Codec ID : S_TEXT/UTF8
Codec ID/Info : UTF-8 Plain Text
Duration : 1 min 9 s
Bit rate : 104 b/s
Count of elements : 13
Stream size : 918 Bytes (0%)
Title : Forced
Language : Ukrainian
Default : Yes
Forced : No

Text #2
ID : 6
Format : PGS
Muxing mode : zlib
Codec ID : S_HDMV/PGS
Codec ID/Info : Picture based subtitle format used on BDs/HD-DVDs
Duration : 2 h 23 min
Bit rate : 31.0 kb/s
Count of elements : 3796
Stream size : 31.8 MiB (0%)
Language : English
Default : No
Forced : No

Text #3
ID : 7
Format : PGS
Muxing mode : zlib
Codec ID : S_HDMV/PGS
Codec ID/Info : Picture based subtitle format used on BDs/HD-DVDs
Duration : 2 h 24 min
Bit rate : 70.6 kb/s
Count of elements : 4798
Stream size : 72.8 MiB (0%)
Language : English
Default : No
Forced : No
Скріншоти




Подяка сайту uafilm.tv за придбану доріжку

Джерело: &
Особиста оцінка: 10 - без зайвих вагань рекомендую всім!


Золотий реліз (завантажене не впливає на рейтинг)
 Трекер:    Зареєстрований   

Завантажити / скачати фільм українською



відео для новачків



 Зареєстрований:   2018-04-17 23:18
 Розмір:   37.92 GB 
 Оцінка фільму:   8.7/10 (Голосів: 10)
   
igor911 
Відео Гуртом
Відео Гуртом


З нами з: 18.01.08
Востаннє: 19.04.18
Повідомлень: 9801

2018-04-17 23:45  
Укр.звук стерео чи моно (https://toloka.to/t88544) ?
IronBee 
Свій


З нами з: 08.02.10
Востаннє: 19.04.18
Повідомлень: 148

2018-04-18 00:07  
igor911
Стерео

omm 
Відео Гуртом - фільмокрай
Відео Гуртом - фільмокрай


З нами з: 12.06.12
Востаннє: 19.04.18
Повідомлень: 2225

2018-04-18 10:11  
Мені сподобалось. На голову вище "Пробудження сили". І актори грати почали, і екшн з'явився, і масштаб. Марк Геміл просто неймовірний.
9 з 10

Ваш часовий пояс: GMT + 2 Години

Нова тема   Відповісти