Зоряні війни: Останні Джедаї / Star Wars: Episode VIII - The Last Jedi (2017) Remux 1080p Ukr/Eng | Sub Eng

Нові коментарі

Нова тема   Відповісти
Автор Повідомлення
IronBee 
Поважний учасник


З нами з: 08.02.10
Востаннє: 24.09.18
Повідомлень: 200

2018-04-17 23:18  
Зоряні війни: Останні Джедаї / Star Wars: Episode VIII - The Last Jedi (2017) Remux 1080p Ukr/Eng | Sub Eng

Зоряні війни: Останні Джедаї / Star Wars: Episode VIII - The Last Jedi (2017) Remux 1080p Ukr/Eng | Sub Eng


Жанр: бойовик, пригоди, фантастика, фентезі
Країна: США



Кінокомпанія: Walt Disney Pictures, Lucasfilm Ltd.
Режисер: Раян Джонсон
Актори: Марк Гемілл, Дейзі Рідлі, Джон Боєґа, Оскар Айзек, Адам Драйвер, Керрі Фішер, Енді Серкіс, Донал Ґлісон, Келлі Марі Трен, Ентоні Деніелс та інші

Сюжет:
Найзнаковіша франшиза усіх часів продовжується! Баланс Сили порушено і міжгалактичний конфлікт набирає нових обертів. На Рей, Фінна та дроїда БіБі-8 чекає жорстоке протистояння…


Тривалість: 02:31:51
Якість: Remux
Відео:
кодек:
розмір кадру: 1920 х 1080
бітрейт: 30,7 Mб/с

Аудіо # 1:
мова: українська | студія LeDoyen
переклад: професійний дубльований
кодек: 5.1
бітрейт: 640 кб/с

Аудіо # 2:
мова: українська | студія LeDoyen
переклад: професійний дубльований
кодек: 5.1
бітрейт: 1509 кб/с

Аудіо # 3:
мова: українська | студія LeDoyen
переклад: професійний дубльований
кодек: -HD MA 5.1
бітрейт: 3697 кб/с

Аудіо # 4:
мова: англійська
переклад: оригінал
кодек: -HD MA 7.1
бітрейт: 4629 кб/с

Аудіо # 5:
мова: англійська
переклад: коментарі
кодек: 2.0
бітрейт: 192 кб/с

Субтитри # 1:
мова: українська (форсовані)
тип: програмні (м'які)
формат: *.srt by Electroz

Субтитри # 2-3:
мова: англійська (повні, SDH)
тип: пререндерні
формат: *.PGS
Info
General
Unique ID : 85731352948384231602055844571889505397 (0x407F420B153C48AD2B80044DC1A39475)
Complete name : D:\Films\Star Wars Episode VIII - The Last Jedi (2017) Remux 1080p Ukr Eng sub Eng [Hurtom].
Format :
Format version : Version 4 / Version 2
File size : 43.9 GiB
Duration : 2 h 32 min
Overall bit rate mode : Variable
Overall bit rate : 41.4 Mb/s
Encoded date : UTC 2018-05-09 05:56:15
Writing application : v23.0.0 ('The Bride Said No') 64-bit
Writing library : libebml v1.3.6 + v1.4.9

Video
ID : 1
Format : AVC
Format/Info : Advanced Video Codec
Format profile : [email protected]
Format settings : CABAC / 4 Ref Frames
Format settings, CABAC : Yes
Format settings, ReFrames : 4 frames
Codec ID : V_MPEG4/ISO/AVC
Duration : 2 h 31 min
Bit rate mode : Variable
Bit rate : 30.7 Mb/s
Maximum bit rate : 37.0 Mb/s
Width : 1 920 pixels
Height : 1 080 pixels
Display aspect ratio : 16:9
Frame rate mode : Constant
Frame rate : 23.976 (24000/1001) FPS
Color space : YUV
Chroma subsampling : 4:2:0
Bit depth : 8 bits
Scan type : Progressive
Bits/(Pixel*Frame) : 0.618
Stream size : 32.6 GiB (74%)
Default : Yes
Forced : No

Audio #1
ID : 2
Format : AC-3
Format/Info : Audio Coding 3
Codec ID : A_AC3
Duration : 2 h 32 min
Bit rate mode : Constant
Bit rate : 640 kb/s
Channel(s) : 6 channels
Channel positions : Front: L C R, Side: L R, LFE
Sampling rate : 48.0 kHz
Frame rate : 31.250 FPS (1536 SPF)
Bit depth : 16 bits
Compression mode : Lossy
Stream size : 696 MiB (2%)
Title : 5.1 @ 640 kbps професійний дубльований | студія LeDoyen
Language : Ukrainian
Service kind : Complete Main
Default : Yes
Forced : No

Audio #2
ID : 3
Format :
Format/Info : Digital Theater Systems
Codec ID : A_DTS
Duration : 2 h 31 min
Bit rate mode : Constant
Bit rate : 1 509 kb/s
Channel(s) : 6 channels
Channel positions : Front: L C R, Side: L R, LFE
Sampling rate : 48.0 kHz
Frame rate : 93.750 FPS (512 SPF)
Bit depth : 24 bits
Compression mode : Lossy
Stream size : 1.60 GiB (4%)
Title : 5.1 1536 кб/с професійний дубльований | студія LeDoyen
Language : Ukrainian
Default : No
Forced : No

Audio #3
ID : 4
Format :
Format/Info : Digital Theater Systems
Format profile : MA / Core
Codec ID : A_DTS
Duration : 2 h 31 min
Bit rate mode : Variable / Constant
Bit rate : 3 697 kb/s / 1 509 kb/s
Channel(s) : 6 channels
Channel positions : Front: L C R, Side: L R, LFE
Sampling rate : 48.0 kHz
Frame rate : 93.750 FPS (512 SPF)
Bit depth : 24 bits
Compression mode : Lossless / Lossy
Stream size : 3.92 GiB (9%)
Title : -HD MA професійний дубльований | студія LeDoyen
Language : Ukrainian
Default : No
Forced : No

Audio #4
ID : 5
Format :
Format/Info : Digital Theater Systems
Format profile : MA / Core
Codec ID : A_DTS
Duration : 2 h 31 min
Bit rate mode : Variable / Constant
Bit rate : 4 629 kb/s / 1 509 kb/s
Channel(s) : 8 channels / 6 channels
Channel positions : Front: L C R, Side: L R, Back: L R, LFE / Front: L C R, Side: L R, LFE
Sampling rate : 48.0 kHz
Frame rate : 93.750 FPS (512 SPF)
Bit depth : 24 bits
Compression mode : Lossless / Lossy
Stream size : 4.91 GiB (11%)
Language : English
Default : No
Forced : No

Audio #5
ID : 6
Format : AC-3
Format/Info : Audio Coding 3
Codec ID : A_AC3
Duration : 2 h 31 min
Bit rate mode : Constant
Bit rate : 192 kb/s
Channel(s) : 2 channels
Channel positions : Front: L R
Sampling rate : 48.0 kHz
Frame rate : 31.250 FPS (1536 SPF)
Bit depth : 16 bits
Compression mode : Lossy
Stream size : 209 MiB (0%)
Language : English
Service kind : Complete Main
Default : No
Forced : No

Text #1
ID : 7
Format : UTF-8
Codec ID : S_TEXT/UTF8
Codec ID/Info : UTF-8 Plain Text
Duration : 1 min 9 s
Bit rate : 104 b/s
Count of elements : 13
Stream size : 918 Bytes (0%)
Title : Forced
Language : Ukrainian
Default : Yes
Forced : No

Text #2
ID : 8
Format : PGS
Muxing mode : zlib
Codec ID : S_HDMV/PGS
Codec ID/Info : Picture based subtitle format used on BDs/HD-DVDs
Duration : 2 h 23 min
Bit rate : 31.0 kb/s
Count of elements : 3796
Stream size : 31.8 MiB (0%)
Language : English
Default : No
Forced : No

Text #3
ID : 9
Format : PGS
Muxing mode : zlib
Codec ID : S_HDMV/PGS
Codec ID/Info : Picture based subtitle format used on BDs/HD-DVDs
Duration : 2 h 24 min
Bit rate : 70.6 kb/s
Count of elements : 4798
Stream size : 72.8 MiB (0%)
Language : English
Default : No
Forced : No
Скріншоти




Подяка пану Hanway за синхронізацію.

Джерело: &
Особиста оцінка: 10 - без зайвих вагань рекомендую всім!



Золотий реліз (завантажене не впливає на рейтинг)
 Трекер:    Зареєстрований   

Завантажити / скачати фільм українською



відео для новачків



 Зареєстрований:   2018-05-09 14:20
 Розмір:   43.92 GB 
 Оцінка фільму:   6.9/10 (Голосів: 10)
   
igor911 
Відео Гуртом
Відео Гуртом


З нами з: 18.01.08
Востаннє: 24.09.18
Повідомлень: 11073

2018-04-17 23:45  
Укр.звук стерео чи моно (https://toloka.to/t88544) ?
IronBee 
Поважний учасник


З нами з: 08.02.10
Востаннє: 24.09.18
Повідомлень: 200

2018-04-18 00:07  
igor911
Стерео

omm 
Відео Гуртом - фільмокрай
Відео Гуртом - фільмокрай


З нами з: 12.06.12
Востаннє: 24.09.18
Повідомлень: 2245

2018-04-18 10:11  
Мені сподобалось. На голову вище "Пробудження сили". І актори грати почали, і екшн з'явився, і масштаб. Марк Геміл просто неймовірний.
9 з 10

IRONHIDE 
Поважний учасник


З нами з: 06.08.10
Востаннє: 24.09.18
Повідомлень: 172

2018-04-22 15:54  
Дякую!
ika1963 
Відео Гуртом - дизайнер
Відео Гуртом - дизайнер


З нами з: 13.05.10
Востаннє: 24.09.18
Повідомлень: 259

2018-04-29 01:46  
Перепрошую, а на звук 5.1 чи краще можна чекати?
ULTRON 
Частий відвідувач


З нами з: 05.03.15
Востаннє: 24.09.18
Повідомлень: 25

2018-05-01 13:55  
ika1963
Теж чекаю відповідь Happy

mr. blef 
Частий відвідувач


З нами з: 26.02.18
Востаннє: 24.09.18
Повідомлень: 39

2018-05-01 22:16  
/AVI/2.91 GB
MaliukDG 
Новенький


З нами з: 06.09.15
Востаннє: 23.09.18
Повідомлень: 11

2018-05-02 18:54  
Фільм лайно. Нічго спільного з оригінальними Стар Варс не має, о крім персонажів. Дивився і плакав (((
b0975226836 
Новенький


З нами з: 31.03.15
Востаннє: 11.09.18
Повідомлень: 1

2018-05-02 21:21  
фільм цікавий, але відразу не розумієш чи сподобався чи ні. Були звичайно дуже тупі моменти, але враження залишилося хороше. А чого такий жирни бітрейт?

Додано через 5 хвилин 21 секунду:

b0975226836
просто цікаво чи є сенс дивитись саме цю версію, чи подивитись шось легше

A1B1C1 
Новенький


З нами з: 19.02.12
Востаннє: 15.09.18
Повідомлень: 15

2018-05-05 12:53  
Передивився фільм...
Слабка тінь, дешева пародія на Епізоди 4-5-6.... Це не зоряні війни, це якесь сміття

IronBee 
Поважний учасник


З нами з: 08.02.10
Востаннє: 24.09.18
Повідомлень: 200

2018-05-09 14:41  
Реліз оновлено додано українську доріжку в 5.1 5.1 -HD MA 5.1
11FrYkT 
Модератор відео


З нами з: 20.02.11
Востаннє: 24.09.18
Повідомлень: 5040

2018-05-09 15:04  
IronBee написано:
Реліз оновлено додано українську доріжку в 5.1 5.1 -HD MA 5.1

То ДТС НД МА потрібно поставити першою і форсованою

IronBee 
Поважний учасник


З нами з: 08.02.10
Востаннє: 24.09.18
Повідомлень: 200

2018-05-09 23:31  
11FrYkT
я поставив першою доріжку в для тих в кого не читає .От наприклад в мене телевізор не читає і якщо буде першою доріжкою то звуку не буде , а вибрати іншу доріжку не можна(тупо буде надпис непідтримуваний аудіокодак).Але якщо треба можу поміняти місцями

11FrYkT 
Модератор відео


З нами з: 20.02.11
Востаннє: 24.09.18
Повідомлень: 5040

2018-05-10 06:52  
IronBee, все правильно і про це я вам писав в пп але надалі ставите її другою (всі сусідні релізи так можете глянути). Не можна підлаштуватися під всіх а ремукс є ремукс
IronBee 
Поважний учасник


З нами з: 08.02.10
Востаннє: 24.09.18
Повідомлень: 200

2018-05-10 11:56  
Добре
Pasha707 
Новенький


З нами з: 19.08.17
Востаннє: 24.09.18
Повідомлень: 9

2018-05-16 18:54  
Будь ласка приберiть озвучку с бiтрейтом 1509 i 3697, ще не в усiх телевiзорах добре працю цей бiтрейт, чи випустiть такий же файл, але без дтс 1509 i IronBee
3697

-_-B_Е_N_D_Е_R-_- 
Забанено
Забанено


З нами з: 30.05.18
Востаннє: 24.06.18
Повідомлень: 284

2018-06-21 20:19  
IronBee написано:

Audio #1
ID : 2
Format : AC-3
Format/Info : Audio Coding 3
Codec ID : A_AC3
Duration : 2 h 32 min
Bit rate mode : Constant
Bit rate : 640 kb/s
Channel(s) : 6 channels
Channel positions : Front: L C R, Side: L R, LFE
Sampling rate : 48.0 kHz
Frame rate : 31.250 FPS (1536 SPF)
Bit depth : 16 bits
Compression mode : Lossy
Stream size : 696 MiB (2%)
Title : 5.1 @ 640 kbps професійний дубльований | студія LeDoyen
Language : Ukrainian
Service kind : Complete Main
Default : Yes
Forced : No

Тут перша доріжка в 640kb/c

Додано через 1 хвилину 38 секунд:

Відеоряд локалізований?

Морж 
Свій


З нами з: 23.01.09
Востаннє: 19.09.18
Повідомлень: 63

2018-06-24 22:41  
Фільмач цікавий, єдине що затягнутий — як на мене, 2 години це в нього вже межа Wide grin

А взагалі класно, що в нових фільмах відходять від старих кліше з 80х і картонних персонажів.

Значно глибші та психологічно цікавіші і Кайло Рен, і ця нова діваха, та й навіть Люк, у порівнянні зі старими епізодами.

Ваш часовий пояс: GMT + 2 Години

Нова тема   Відповісти