Два стволи (Сезон 1-2) / Popoz (Season 1-2) (2013-2014) 720p

Нові коментарі

Нова тема   Відповісти
Останній раз роздавалося Bandit 01 (2018-12-16)
Автор Повідомлення
Anonymous 







2018-04-17 15:56  
Два стволи (Сезон 1-2) / Popoz (Season 1-2) (2013-2014) 720p

Два стволи (Сезон 1-2) / Popoz (Season 1-2) (2013-2014) 720p


Жанр: комедія, бойовик, скетч
Країна: Голандія

6,3

Кінокомпанія / телеканал: NL Film
Режисер: Мартін Смітс, Ервін ван ден Ешоф
Актори/ролі озвучують: Габ Сміт, Серхіо Гасселбайнк, Урія Арнгем, Ґерт-Жан де Варм, Ноель Ділен та інші.

Сюжет:
Іво і Ренді ліниві, мстиві, проклинають все навколо і не проти пристрелити свого молодого стажиста Коко (Корнеліуса) та інших хто попаде під руку героїв шоу. Комічні ситуації, в які потрапляють горе-копи, зазвичай відбуваються через непорозуміння, та безглуздої поведінки в стилі «мачо». Але на відміну від героїв бойовиків Іво і Ренді швидше самі сприяють вчиненню злочинів, ніж зупиняють їх.


Тривалість: 1 серія: ~22 хв (цілком серій: 12)
Перелік серій
Episode #1.1
Episode #1.2
Episode #1.3
Episode #1.4
Episode #1.5
Episode #1.6
Episode #2.1
Episode #2.2
Episode #2.3
Episode #2.4
Episode #2.5
Episode #2.6
Якість: 720p
Відео:
кодек:
розмір кадру: 1280 х 720
бітрейт: 2723 - 3616 кб/с

Аудіо:
мова: українська
переклад: багатоголосий закадровий
кодек: 2.0
бітрейт: 192 кб/с

В четвертій серії відсутнє озвучення з 1 хв 13 сек по 3хв 50 сек (в трансляції тб ця сцена була відсутня) але там майже не розмовляють та шмякають цицки
Скріншоти






Info
Video
ID : 1
Format : AVC
Format/Info : Advanced Video Codec
Format profile : [email protected]
Format settings : CABAC / 5 Ref Frames
Format settings, CABAC : Yes
Format settings, ReFrames : 5 frames
Codec ID : V_MPEG4/ISO/AVC
Duration : 20 min 57 s
Bit rate : 3 187 kb/s
Width : 1 280 pixels
Height : 720 pixels
Display aspect ratio : 16:9
Frame rate mode : Constant
Frame rate : 25.000 FPS
Color space : YUV
Chroma subsampling : 4:2:0
Bit depth : 8 bits
Scan type : Progressive
Bits/(Pixel*Frame) : 0.138
Stream size : 478 MiB (94%)
Writing library : core 142 r2491 24e4fed
Encoding settings : cabac=1 / ref=5 / deblock=1:0:0 / analyse=0x3:0x113 / me=umh / subme=8 / psy=1 / psy_rd=1.00:0.15 / mixed_ref=1 / me_range=16 / chroma_me=1 / trellis=1 / 8x8dct=1 / cqm=0 / deadzone=21,11 / fast_pskip=1 / chroma_qp_offset=-3 / threads=20 / lookahead_threads=3 / sliced_threads=0 / nr=0 / decimate=1 / interlaced=0 / bluray_compat=0 / constrained_intra=0 / bframes=3 / b_pyramid=2 / b_adapt=2 / b_bias=0 / direct=3 / weightb=1 / open_gop=0 / weightp=2 / keyint=250 / keyint_min=25 / scenecut=40 / intra_refresh=0 / rc_lookahead=50 / rc=crf / mbtree=1 / crf=18.0 / qcomp=0.60 / qpmin=0 / qpmax=69 / qpstep=4 / ip_ratio=1.40 / aq=1:1.00
Default : Yes
Forced : No
Color range : Limited
Matrix coefficients : BT.709

Audio
ID : 2
Format : AC-3
Format/Info : Audio Coding 3
Codec ID : A_AC3
Duration : 20 min 57 s
Bit rate mode : Constant
Bit rate : 192 kb/s
Channel(s) : 2 channels
Channel positions : Front: L R
Sampling rate : 48.0 kHz
Frame rate : 31.250 FPS (1536 SPF)
Bit depth : 16 bits
Compression mode : Lossy
Stream size : 28.8 MiB (6%)
Language : Ukrainian
Service kind : Complete Main
Default : Yes
Forced : No
Джерело:


Бронзовий реліз (на рейтинг впливає 75% завантаженого)
 Трекер:    Зареєстрований   

Завантажити / скачати серіал українською



відео для новачків



 Зареєстрований:   2018-06-07 15:53
 Розмір:   5.38 GB 
 Оцінка серіалу:   7.8/10 (Голосів: 5)
   
McNiL 
Новенький


З нами з: 01.02.13
Востаннє: 11.12.18
Повідомлень: 22

2018-04-18 16:04  
А чи буде повний метр / фiльм Popoz ?
Та коли очикувати можливiсть завантажити ?

Anonymous 







2018-04-18 17:13  
McNiL написано:

А чи буде повний метр / фiльм Popoz ?
Та коли очикувати можливiсть завантажити ?

На повний метр озвучення не маю.

А реліз мабуть в кінці наступного тижня, але якщо буде час та натхнення то і в найближчі дні

McNiL 
Новенький


З нами з: 01.02.13
Востаннє: 11.12.18
Повідомлень: 22

2018-04-18 17:43  
Дякую
bot 
робот


З нами з: 30.09.07
Востаннє: 26.05.05
Повідомлень: 20349

2018-06-07 15:53  
Тему перенесено з Анонси релізів до форуму Серіали в HD


Sando7

zaika 
VIP


З нами з: 01.07.12
Востаннє: 16.12.18
Повідомлень: 1172

2018-06-30 14:32  
Сміятись над поліцією - тема зовсім не нова в світовому кінематографі. Пам'ятаю кінець шістидесятих минулого століття. Фантомас. Кумедні комісар Жюв та його соратники. У всякому разі це було смішно. І це було схоже на пародію, на сатиру. Але оце??? Два детектива, які як тільки побачать симпатичну судмедеспертшу тут же починають дрочити. Невже це смішно? Якась сексуально стурбована вчителька початкових класів. Якісь прибацані ганстери. І що цікаво - фільм голандський а не англійський, хто досить часто зловживають подібним гумором. Що це таке взагалі? 2/10.
Ваш часовий пояс: GMT + 2 Години

Нова тема   Відповісти