Пасажир / The Commuter (2018) Remux 1080p Ukr/Eng | Sub Eng

Нові коментарі

Нова тема   Відповісти
Автор Повідомлення
staf777 
Попереджень: 1
Попереджень: 1 


З нами з: 16.11.16
Востаннє: 19.11.18
Повідомлень: 1756

2018-04-17 15:15  
Пасажир / The Commuter (2018) Remux 1080p Ukr/Eng | Sub Eng

Пасажир / The Commuter (2018) Remux 1080p Ukr/Eng | Sub Eng


Жанр: бойовик, детектив, трилер
Країна: США, Велика Британія, Франція



Кінокомпанія: StudioCanal
Режисер: Хауме Кольєт-Серра / Jaume Collet-Serra
Актори: Ліам Нісон / Liam Neeson, Віра Фарміґа / Vera Farmiga, Патрік Вілсон / Patrick Wilson, Сем Нілл / Sam Neill, Джонатан Бенкс / Jonathan Banks, Елізабет МакҐоверн / Elizabeth McGovern, Флоренс П'ю / Florence Pugh, Кілліан Скотт / Killian Scott, Шазад Латіф / Shazad Latif, Енді Найман / Andy Nyman, Клара Лаго / Clara Lago та інші

Сюжет:
Життя страхового агента Майкла (Ліам Нісон) благополучне та розмірене. Щодня він їде на роботу по одному й тому самому маршруту. У поїзді поряд із ним одного разу сідає Джоанна (Віра Фарміга) – дивна жінка, що пропонує взяти участь у соціальному експерименті. Нагорода за незначну допомогу складе 75 тисяч доларів. З кожною хвилиною стає зрозумілішим, що ця безглузда афера призведе до непоправних наслідків. На жаль, ані змінити правила, ані вийти з гри Майкл вже не може. Тож все що йому лишається – спробувати вийти з потягу.


Тривалість: 01:44:55
Якість: Remux 1080p
Відео:
кодек:
розмір кадру: 1920x1080
бітрейт: 34.7 Mб/с

Аудіо # 1:
мова: українська
переклад: професійний дубльований | студія ААА-sound
кодек: HD MA 5.1
бітрейт: 3840 кб/с
Аудіо # 2:
мова: українська
переклад: професійний дубльований | студія ААА-sound
кодек: 5.1
бітрейт: 640 кб/с
Інформація про дубляж
Переклад: Юлія Когут
Режисер дубляжу та звукорежисер перезапису: Олександр Єфімов
Ролі дублювали: Дмитро Завадський, Олена Узлюк, Роман Чорний, Юлія Перенчук, Дмитро Сова, Антоніна Якушева, Кирило Нікітенко, Євген Пашин, Ірина Грей, Юрій Ребрик, Катерина Буцька, Андрій Альохін, Ярослав Чорненький, Іван Розін, Михайло Кришталь, Павло Скороходько та інші.

Фільм дубльовано студією ААА-sound у 2018 році на замовлення компанії "Вольга Україна".
Аудіо # 3:
мова: англійська
переклад: оригінал
кодек: TrueHD+Atmos 7.1
бітрейт: 4970 кб/с

Аудіо # 4:
мова: англійська
переклад: оригінал
кодек: 5.1
бітрейт: 448 кб/с

Субтитри:
мова: англійська
тип: програмні (м'які)
формат: *.srt

Збережено оригінальні розділи, як на Blu-ray
Info
Код:
General
Unique ID                   : 338823379984286739820735773253469260248 (0xFEE70263E9418FD59C359D2E6274C9D8)
Complete name               : H:\» HD українською » Фільми в HD\Бойовик\The Commuter (2018) Remux 1080p [UKR_ENG] [Hurtom].
Format                      :
Format version              : Version 4 / Version 2
File size                   : 32.8 GiB
Duration                    : 1 h 44 min
Overall bit rate mode       : Variable
Overall bit rate            : 44.7 Mb/s
Movie name                  : The Commuter (2018) Remux 1080p [UKR_ENG] [Hurtom]
Encoded date                : UTC 2018-10-10 10:35:35
Writing application         : v24.0.0 ('Beyond The Pale') 64-bit
Writing library             : libebml v1.3.6 + v1.4.9
Cover                       : Yes
Attachments                 : cover.jpg

Video
ID                          : 1
Format                      : AVC
Format/Info                 : Advanced Video Codec
Format profile              : [email protected]
Format settings             : CABAC / 4 Ref Frames
Format settings, CABAC      : Yes
Format settings, ReFrames   : 4 frames
Codec ID                    : V_MPEG4/ISO/AVC
Duration                    : 1 h 44 min
Bit rate mode               : Variable
Bit rate                    : 34.7 Mb/s
Maximum bit rate            : 37.0 Mb/s
Width                       : 1 920 pixels
Height                      : 1 080 pixels
Display aspect ratio        : 16:9
Frame rate mode             : Constant
Frame rate                  : 23.976 (24000/1001) FPS
Color space                 : YUV
Chroma subsampling          : 4:2:0
Bit depth                   : 8 bits
Scan type                   : Progressive
Bits/(Pixel*Frame)          : 0.699
Stream size                 : 25.5 GiB (78%)
Default                     : Yes
Forced                      : No

Audio #1
ID                          : 2
Format                      :
Format/Info                 : Digital Theater Systems
Format profile              : MA / Core
Codec ID                    : A_DTS
Duration                    : 1 h 44 min
Bit rate mode               : Variable / Constant
Bit rate                    : 3 840 kb/s / 1 509 kb/s
Channel(s)                  : 6 channels
Channel positions           : Front: L C R, Side: L R, LFE
Sampling rate               : 48.0 kHz
Frame rate                  : 93.750 FPS (512 SPF)
Bit depth                   : 24 bits
Compression mode            : Lossless / Lossy
Stream size                 : 2.83 GiB (9%)
Title                       : [UA-DUB- HD MA]
Language                    : Ukrainian
Default                     : Yes
Forced                      : Yes

Audio #2
ID                          : 3
Format                      : AC-3
Format/Info                 : Audio Coding 3
Codec ID                    : A_AC3
Duration                    : 1 h 44 min
Bit rate mode               : Constant
Bit rate                    : 640 kb/s
Channel(s)                  : 6 channels
Channel positions           : Front: L C R, Side: L R, LFE
Sampling rate               : 48.0 kHz
Frame rate                  : 31.250 FPS (1536 SPF)
Bit depth                   : 16 bits
Compression mode            : Lossy
Stream size                 : 480 MiB (1%)
Title                       : [UA-DUB-]
Language                    : Ukrainian
Service kind                : Complete Main
Default                     : No
Forced                      : No

Audio #3
ID                          : 4
Format                      : TrueHD
Format profile              : TrueHD+Atmos / TrueHD
Codec ID                    : A_TRUEHD
Duration                    : 1 h 44 min
Bit rate mode               : Variable
Bit rate                    : 4 970 kb/s
Maximum bit rate            : 6 402 kb/s
Channel(s)                  : Object Based / 8 channels
Channel positions           : Object Based / Front: L C R, Side: L R, Back: L R, LFE
Sampling rate               :  / 48.0 kHz
Frame rate                  : 1 200.000 FPS (40 SPF)
Compression mode            : Lossless
Stream size                 : 3.64 GiB (11%)
Language                    : English
Default                     : No
Forced                      : No

Audio #4
ID                          : 5
Format                      : AC-3
Format/Info                 : Audio Coding 3
Codec ID                    : A_AC3
Duration                    : 1 h 44 min
Bit rate mode               : Constant
Bit rate                    : 448 kb/s
Channel(s)                  : 6 channels
Channel positions           : Front: L C R, Side: L R, LFE
Sampling rate               : 48.0 kHz
Frame rate                  : 31.250 FPS (1536 SPF)
Bit depth                   : 16 bits
Compression mode            : Lossy
Stream size                 : 336 MiB (1%)
Language                    : English
Service kind                : Complete Main
Default                     : No
Forced                      : No

Text
ID                          : 6
Format                      : UTF-8
Codec ID                    : S_TEXT/UTF8
Codec ID/Info               : UTF-8 Plain Text
Duration                    : 1 h 37 min
Bit rate                    : 70 b/s
Count of elements           : 1438
Stream size                 : 50.2 KiB (0%)
Title                       : Full
Language                    : English
Default                     : No
Forced                      : No

Menu
00:00:00.000                : en:Chapter 01
00:05:38.254                : en:Chapter 02
00:12:23.492                : en:Chapter 03
00:16:54.471                : en:Chapter 04
00:25:36.117                : en:Chapter 05
00:32:20.855                : en:Chapter 06
00:41:37.953                : en:Chapter 07
00:44:38.217                : en:Chapter 08
00:52:38.989                : en:Chapter 09
00:59:30.650                : en:Chapter 10
01:04:50.845                : en:Chapter 11
01:11:53.517                : en:Chapter 12
01:20:23.318                : en:Chapter 13
01:25:23.159                : en:Chapter 14
01:30:45.648                : en:Chapter 15
01:37:26.340                : en:Chapter 16



Подяка пану Hanway за синхронізацію.
Джерело: &



Золотий реліз (завантажене не впливає на рейтинг)
 Трекер:    Зареєстрований   

Завантажити / скачати фільм українською



відео для новачків



 Зареєстрований:   2018-10-10 13:15
 Розмір:   32.78 GB 
 Оцінка фільму:   8.9/10 (Голосів: 42)
   
Інші релізи
   Пасажир / The Commuter (2018) 720p Ukr/Eng | Sub Eng igor911  22 / 1   6.51 GB   2018-10-12 19:44 
   Пасажир / The Commuter (2018) igor911  23 / 0   1.46 GB   2018-10-12 19:29 
   Пасажир / The Commuter (2018) AVC Ukr/Eng | Sub Eng Electroz  42 / 1   1.97 GB   2018-10-09 21:29 
   Пасажир / The Commuter (2018) 1080p Ukr/Eng | Sub Eng Electroz  19 / 0   9.82 GB   2018-10-09 21:26 
staf777 
Попереджень: 1
Попереджень: 1 


З нами з: 16.11.16
Востаннє: 19.11.18
Повідомлень: 1756

2018-10-10 13:18  
Замінив доріжку на HD MA 5.1


kryk-v.ya. 
VIP


З нами з: 14.02.14
Востаннє: 19.11.18
Повідомлень: 687

2018-10-10 18:58  
класне кіно.
taurus_21 
Новенький


З нами з: 27.10.16
Востаннє: 17.11.18
Повідомлень: 9

2018-10-10 20:00  
мова: українська
кодек: HD MA 5.1

!!!!! Happy

ulana1111 
Новенький


З нами з: 03.08.11
Востаннє: 18.11.18
Повідомлень: 4

2018-10-10 20:44  
Фільм супер!
ВАВУНЯ 
Поважний учасник


З нами з: 30.06.15
Востаннє: 18.11.18
Повідомлень: 226

2018-10-13 15:55  
непогано, але таке вже було... і не раз.
7/10

[email protected] 
Свій


З нами з: 24.03.17
Востаннє: 18.11.18
Повідомлень: 149

2018-10-17 22:14  
класне кіно
Ваш часовий пояс: GMT + 2 Години

Нова тема   Відповісти