Пасажир / The Commuter (2018) Remux 1080p Ukr/Eng | Sub Eng

Нові коментарі

Нова тема   Відповісти
Автор Повідомлення
staf777 
Попереджень: 1
Попереджень: 1 


З нами з: 16.11.16
Востаннє: 18.07.18
Повідомлень: 1256

2018-04-17 16:15  
Пасажир / The Commuter (2018) Remux 1080p Ukr/Eng | Sub Eng

Пасажир / The Commuter (2018) Remux 1080p Ukr/Eng | Sub Eng


Жанр: бойовик, детектив, трилер
Країна: США, Велика Британія, Франція



Кінокомпанія: StudioCanal
Режисер: Хауме Кольєт-Серра / Jaume Collet-Serra
Актори: Ліам Нісон / Liam Neeson, Віра Фарміґа / Vera Farmiga, Патрік Вілсон / Patrick Wilson, Сем Нілл / Sam Neill, Джонатан Бенкс / Jonathan Banks, Елізабет МакҐоверн / Elizabeth McGovern, Флоренс П'ю / Florence Pugh, Кілліан Скотт / Killian Scott, Шазад Латіф / Shazad Latif, Енді Найман / Andy Nyman, Клара Лаго / Clara Lago та інші

Сюжет:
Життя страхового агента Майкла (Ліам Нісон) благополучне та розмірене. Щодня він їде на роботу по одному й тому самому маршруту. У поїзді поряд із ним одного разу сідає Джоанна (Віра Фарміга) – дивна жінка, що пропонує взяти участь у соціальному експерименті. Нагорода за незначну допомогу складе 75 тисяч доларів. З кожною хвилиною стає зрозумілішим, що ця безглузда афера призведе до непоправних наслідків. На жаль, ані змінити правила, ані вийти з гри Майкл вже не може. Тож все що йому лишається – спробувати вийти з потягу.


Тривалість: 01:44:55
Якість: Remux 1080p
Відео:
кодек:
розмір кадру: 1920x1080
бітрейт: 34.7 Mб/с

Аудіо # 1:
мова: українська
переклад: професійний дубльований | студія ААА-sound
кодек: 2.0
бітрейт: 224 кб/с
Інформація про дубляж
Переклад: Юлія Когут
Режисер дубляжу та звукорежисер перезапису: Олександр Єфімов
Ролі дублювали: Дмитро Завадський, Олена Узлюк, Роман Чорний, Юлія Перенчук, Дмитро Сова, Антоніна Якушева, Кирило Нікітенко, Євген Пашин, Ірина Грей, Юрій Ребрик, Катерина Буцька, Андрій Альохін, Ярослав Чорненький, Іван Розін, Михайло Кришталь, Павло Скороходько та інші.

Фільм дубльовано студією ААА-sound у 2018 році на замовлення компанії "Вольга Україна".
Аудіо # 2:
мова: англійська
переклад: оригінал
кодек: TrueHD+Atmos 7.1
бітрейт: 4970 кб/с

Аудіо # 3:
мова: англійська
переклад: оригінал
кодек: 5.1
бітрейт: 448 кб/с

Субтитри # 1-3:
мова: англійська
тип: програмні (м'які)
формат: *.srt

Збережено оригінальні розділи, як на Blu-ray
Info
Код:
General
Unique ID                   : 209857798139317738963922469357640440540 (0x9DE12449B9D67A8E8651234895C35ADC)
Complete name               : H:\» HD українською » Фільми в HD\Бойовик\The Commuter (2018) Remux 1080p [UKR_ENG] [Hurtom].
Format                      :
Format version              : Version 4 / Version 2
File size                   : 29.6 GiB
Duration                    : 1 h 44 min
Overall bit rate mode       : Variable
Overall bit rate            : 40.5 Mb/s
Movie name                  : The Commuter (2018) Remux 1080p [UKR_ENG] [Hurtom]
Encoded date                : UTC 2018-04-17 13:53:10
Writing application         : v9.8.0 ('Kuglblids') 64bit
Writing library             : libebml v1.3.4 + v1.4.5
Cover                       : Yes
Attachments                 : cover.jpg

Video
ID                          : 1
Format                      : AVC
Format/Info                 : Advanced Video Codec
Format profile              : [email protected]
Format settings             : CABAC / 4 Ref Frames
Format settings, CABAC      : Yes
Format settings, ReFrames   : 4 frames
Codec ID                    : V_MPEG4/ISO/AVC
Duration                    : 1 h 44 min
Bit rate mode               : Variable
Bit rate                    : 34.7 Mb/s
Maximum bit rate            : 37.0 Mb/s
Width                       : 1 920 pixels
Height                      : 1 080 pixels
Display aspect ratio        : 16:9
Frame rate mode             : Constant
Frame rate                  : 23.976 (24000/1001) FPS
Color space                 : YUV
Chroma subsampling          : 4:2:0
Bit depth                   : 8 bits
Scan type                   : Progressive
Bits/(Pixel*Frame)          : 0.699
Stream size                 : 25.5 GiB (86%)
Title                       : Remux by Silverok
Default                     : Yes
Forced                      : No

Audio #1
ID                          : 2
Format                      : AC-3
Format/Info                 : Audio Coding 3
Codec ID                    : A_AC3
Duration                    : 1 h 44 min
Bit rate mode               : Constant
Bit rate                    : 224 kb/s
Channel(s)                  : 2 channels
Channel positions           : Front: L R
Sampling rate               : 48.0 kHz
Frame rate                  : 31.250 FPS (1536 SPF)
Bit depth                   : 16 bits
Compression mode            : Lossy
Stream size                 : 168 MiB (1%)
Title                       : [UA-DUB| студія ААА-sound ]
Language                    : Ukrainian
Service kind                : Complete Main
Default                     : Yes
Forced                      : Yes

Audio #2
ID                          : 3
Format                      : TrueHD
Format profile              : TrueHD+Atmos / TrueHD
Codec ID                    : A_TRUEHD
Duration                    : 1 h 44 min
Bit rate mode               : Variable
Bit rate                    : 4 970 kb/s
Maximum bit rate            : 6 402 kb/s
Channel(s)                  : Object Based / 8 channels
Channel positions           : Object Based / Front: L C R, Side: L R, Back: L R, LFE
Sampling rate               :  / 48.0 kHz
Frame rate                  : 1 200.000 FPS (40 SPF)
Compression mode            : Lossless
Stream size                 : 3.64 GiB (12%)
Language                    : English
Default                     : No
Forced                      : No

Audio #3
ID                          : 4
Format                      : AC-3
Format/Info                 : Audio Coding 3
Codec ID                    : A_AC3
Duration                    : 1 h 44 min
Bit rate mode               : Constant
Bit rate                    : 448 kb/s
Channel(s)                  : 6 channels
Channel positions           : Front: L C R, Side: L R, LFE
Sampling rate               : 48.0 kHz
Frame rate                  : 31.250 FPS (1536 SPF)
Bit depth                   : 16 bits
Compression mode            : Lossy
Stream size                 : 336 MiB (1%)
Language                    : English
Service kind                : Complete Main
Default                     : No
Forced                      : No

Text
ID                          : 5
Format                      : UTF-8
Codec ID                    : S_TEXT/UTF8
Codec ID/Info               : UTF-8 Plain Text
Duration                    : 1 h 37 min
Bit rate                    : 70 b/s
Count of elements           : 1438
Stream size                 : 50.2 KiB (0%)
Title                       : Full
Language                    : English
Default                     : No
Forced                      : No

Menu
00:00:00.000                : en:Chapter 01
00:05:38.254                : en:Chapter 02
00:12:23.492                : en:Chapter 03
00:16:54.471                : en:Chapter 04
00:25:36.117                : en:Chapter 05
00:32:20.855                : en:Chapter 06
00:41:37.953                : en:Chapter 07
00:44:38.217                : en:Chapter 08
00:52:38.989                : en:Chapter 09
00:59:30.650                : en:Chapter 10
01:04:50.845                : en:Chapter 11
01:11:53.517                : en:Chapter 12
01:20:23.318                : en:Chapter 13
01:25:23.159                : en:Chapter 14
01:30:45.648                : en:Chapter 15
01:37:26.340                : en:Chapter 16


Джерело: &
Подяка автору реліза-першоджерела за українську доріжку та igor911 за допомогу в створені реліза


Золотий реліз (завантажене не впливає на рейтинг)
 Трекер:    Зареєстрований   

Завантажити / скачати фільм українською



відео для новачків



 Зареєстрований:   2018-04-17 18:23
 Розмір:   29.65 GB 
 Оцінка фільму:   9.4/10 (Голосів: 29)
   
Інші релізи
   Пасажир / The Commuter (2018) igor911  122 / 7   1.3 GB   2018-04-17 13:55 
   Пасажир / The Commuter (2018) 720p Ukr/Eng | Sub Eng igor911  76 / 5   5.1 GB   2018-04-17 13:09 
   Пасажир / The Commuter (2018) 1080p Ukr/Eng | Sub Eng Electroz  60 / 4   8.4 GB   2018-04-17 08:26 
   Пасажир / The Commuter (2018) AVC Ukr/Eng | Sub Eng Electroz  165 / 4   1.81 GB   2018-04-17 08:22 
Ваш часовий пояс: GMT + 2 Години

Нова тема   Відповісти