Пасажир / The Commuter (2018)

Нові коментарі

Нова тема   Відповісти
Автор Повідомлення
Anonymous 







2018-04-17 11:53  
Пасажир / The Commuter (2018)

Пасажир / The Commuter (2018)


Жанр: бойовик, детектив, трилер
Країна: США, Велика Британія, Франція



Кінокомпанія: StudioCanal
Режисер: Хауме Кольєт-Серра / Jaume Collet-Serra
Актори: Ліам Нісон / Liam Neeson, Віра Фарміґа / Vera Farmiga, Патрік Вілсон / Patrick Wilson, Сем Нілл / Sam Neill, Джонатан Бенкс / Jonathan Banks, Елізабет МакҐоверн / Elizabeth McGovern, Флоренс П'ю / Florence Pugh, Кілліан Скотт / Killian Scott, Шазад Латіф / Shazad Latif, Енді Найман / Andy Nyman, Клара Лаго / Clara Lago та інші

Сюжет:
Життя страхового агента Майкла (Ліам Нісон) благополучне та розмірене. Щодня він їде на роботу по одному й тому самому маршруту. У поїзді поряд із ним одного разу сідає Джоанна (Віра Фарміга) – дивна жінка, що пропонує взяти участь у соціальному експерименті. Нагорода за незначну допомогу складе 75 тисяч доларів. З кожною хвилиною стає зрозумілішим, що ця безглузда афера призведе до непоправних наслідків. На жаль, ані змінити правила, ані вийти з гри Майкл вже не може. Тож все що йому лишається – спробувати вийти з потягу.


Тривалість: 01:44:55
Якість:
Відео:
кодек:
розмір кадру: 720 х 304
бітрейт: 1536 кб/с

Аудіо:
мова: українська
переклад: професійний дубльований | студія ААА-sound
кодек: 2.0
бітрейт: 224 кб/с
Інформація про дубляж
Переклад: Юлія Когут
Режисер дубляжу та звукорежисер перезапису: Олександр Єфімов
Ролі дублювали: Дмитро Завадський, Олена Узлюк, Роман Чорний, Юлія Перенчук, Дмитро Сова, Антоніна Якушева, Кирило Нікітенко, Євген Пашин, Ірина Грей, Юрій Ребрик, Катерина Буцька, Андрій Альохін, Ярослав Чорненький, Іван Розін, Михайло Кришталь, Павло Скороходько та інші.

Фільм дубльовано студією ААА-sound у 2018 році на замовлення компанії "Вольга Україна".
Info
Код:
General
Complete name               : The Commuter (2018) [Ukr] [Hurtom].avi
Format                      : AVI
Format/Info                 : Audio Video Interleave
File size                   : 1.30 GiB
Duration                    : 1 h 44 min
Overall bit rate            : 1 769 kb/s
Movie name                  : Пасажир / The Commuter (2018) [Ukr] [Hurtom]
Genre                       : бойовик, детектив, трилер
Writing application         : VirtualDubModUkr 1.5.10.2 (build 2542/release)
Writing library             : VirtualDubMod build 2542/release
Comment                     : https://toloka.to/t89402 17.04.2018

Video
ID                          : 0
Format                      : MPEG-4 Visual
Format profile              : Advanced [email protected]
Format settings             : BVOP1 / Custom Matrix
Format settings, BVOP       : 1
Format settings, QPel       : No
Format settings, GMC        : No warppoints
Format settings, Matrix     : Custom
Codec ID                    :
Codec ID/Hint               :
Duration                    : 1 h 44 min
Bit rate                    : 1 536 kb/s
Width                       : 720 pixels
Height                      : 304 pixels
Display aspect ratio        : 2.35:1
Frame rate                  : 23.976 (24000/1001) FPS
Color space                 : YUV
Chroma subsampling          : 4:2:0
Bit depth                   : 8 bits
Scan type                   : Progressive
Compression mode            : Lossy
Bits/(Pixel*Frame)          : 0.293
Stream size                 : 1.13 GiB (87%)
Writing library             : 73

Audio
ID                          : 1
Format                      : AC-3
Format/Info                 : Audio Coding 3
Codec ID                    : 2000
Duration                    : 1 h 44 min
Bit rate mode               : Constant
Bit rate                    : 224 kb/s
Channel(s)                  : 2 channels
Channel positions           : Front: L R
Sampling rate               : 48.0 kHz
Frame rate                  : 31.250 FPS (1536 SPF)
Bit depth                   : 16 bits
Compression mode            : Lossy
Stream size                 : 168 MiB (13%)
Alignment                   : Split accross interleaves
Interleave, duration        : 42  ms (1.00 video frame)
Interleave, preload duratio : 500  ms
Title                       : UKR DUB [AAA-Sound, iTunes]
Service kind                : Complete Main


Джерело: &
Подяка автору реліза-першоджерела за українську доріжку.


 Трекер:    Зареєстрований   

Завантажити / скачати фільм українською



відео для новачків



 Зареєстрований:   2018-04-17 13:55
 Розмір:   1.3 GB 
 Оцінка фільму:   8.9/10 (Голосів: 85)
   
Інші релізи
   Пасажир / The Commuter (2018) Remux 1080p Ukr/Eng | Sub Eng staf777  11 / 0   29.65 GB   2018-04-17 18:23 
   Пасажир / The Commuter (2018) 720p Ukr/Eng | Sub Eng igor911  33 / 4   5.1 GB   2018-04-17 13:09 
   Пасажир / The Commuter (2018) 1080p Ukr/Eng | Sub Eng Electroz  38 / 4   8.4 GB   2018-04-17 08:26 
   Пасажир / The Commuter (2018) AVC Ukr/Eng | Sub Eng Electroz  61 / 1   1.81 GB   2018-04-17 08:22 
badi03 
Новенький


З нами з: 30.01.12
Востаннє: 17.07.18
Повідомлень: 1

2018-04-17 19:35  
потужна дурниця!
werder482 
Частий відвідувач


З нами з: 20.11.09
Востаннє: 16.07.18
Повідомлень: 33

2018-04-18 17:32  
ой дурня, ой яка дурня ... ляп на ляпі ... брєд на брєді. Не сподобалось.
Koful 
Поважний учасник


З нами з: 05.12.16
Востаннє: 17.07.18
Повідомлень: 151

2018-04-18 17:59  
Жесть просто що вони з актора зробили. Ще трошкі прибрати ніс і вилитий Волан-де-Морт )))
Скріншот

Myk1209 
VIP


З нами з: 04.02.12
Востаннє: 16.07.18
Повідомлень: 280

2018-04-20 19:03  
.....каааапееець Wink (1)
Fonbaron 
Свій


З нами з: 09.12.12
Востаннє: 16.07.18
Повідомлень: 70

2018-04-20 21:01  
Переграли 5/10
Victor_Scythian 
Поважний учасник


З нами з: 06.01.17
Востаннє: 17.07.18
Повідомлень: 191

2018-04-21 09:05  
3/10... особливо повеселило, як 60 річній дідусь розкидає накачану молодь, агентів ФБР, поліцейських і т.д.
qwerjar 
Свій


З нами з: 10.07.10
Востаннє: 17.07.18
Повідомлень: 102

2018-04-22 05:26  
Хороший фільм.
Непоганий детектив + інтрига + камерність, але не мало акторів + трилер + непоганий саундтрек.
Секрет перегляду: не морочте голову всякими ляпами. Це глупість думати про таке, коли дивишся блокбастер.

Ванько 
VIP


З нами з: 27.08.09
Востаннє: 17.07.18
Повідомлень: 277

2018-04-24 08:11  
Ліам Нісон уже не торт для таких ролей, як на мене :-) Фільм ні риба, ні м'ясо.
СЛІПИЙ 
Свій


З нами з: 02.02.12
Востаннє: 16.07.18
Повідомлень: 51

2018-05-06 20:08  
Фільм сподобався. Я б йому рейтинг дав набагато більше чим 6.3.
Однозначно рекомендую до перегляду.

miramaxx 
Частий відвідувач


З нами з: 18.05.11
Востаннє: 17.07.18
Повідомлень: 39

2018-07-09 23:38  
класний фільм! тримав в напрузі до самого кінця. не блокбастер, скорше бойовий детектив)
Ваш часовий пояс: GMT + 2 Години

Нова тема   Відповісти