Расті-механік / Rusty Rivets (Сезон 1, 4 серії з 26) (2016) 1080p

Нові коментарі

Нова тема   Відповісти
Автор Повідомлення
sergiyko.5 
VIP


З нами з: 25.02.16
Востаннє: 20.04.18
Повідомлень: 1454

2018-04-17 10:24  
Расті-механік / Rusty Rivets (Сезон 1) (2016) 1080p


Расті-механік / Rusty Rivets (Сезон 1, 4 серії з 26) (2016) 1080p

Жанр: пригоди, фантастика, комедія
Країна: Канада
Кінокомпанія: Arc Productions, Nickelodeon Productions
Режисер: Пол Х. Браун, Рік Маршалл, Бред Фергюсон

Сюжет:
Геніальний хлопчик на ім'я Расти, який обожнює винаходи. Він справжній вигадник, і може придумати та сконструювати все що завгодно. За що б він не взявся, результат неодмінно буде захоплюючим, а процес принесе задоволення не тільки йому, але і всім глядачам. Під час створення якого-небудь радіокерованого динозавра або реактивного бурового мурашки, ви дізнаєтеся і зрозумієте безліч фізичних і математичних фактів, поринете в основи інженерії та опануєте багато основоположних законів. Зрозуміти це зможе навіть 4-річний малюк, адже тут не буде складних термінів і обчислень. Все побудовано на логіці та доброзичливому ставленні Расти до науки!




Тривалість: 1 серія: 23:11 (цілком серій: 4)
Якість:

Відео: кодек: розмір кадру: 1920 х 1080 бітрейт: 3138 кб/с
Аудіо: мова: українська переклад: професійний дубльований кодек: 2.0 бітрейт: 192 кб/с Джерело озвучення:
Перелік серій
01 Расті рятує динозавра - Повітряні перегони Расті

07 Поїздка на лижі - Пухнаста злодюжка в таборі
08 Запальний Расті - Поцілити у повітряну кулю

10 Пингвиняча проблема Расті - Труднощі з піщаним замком Расті
Info
General
Unique ID : 112556770094625919544824704696502400563 (0x54ADA538BAC6F992D3215172F57F3633)
Complete name : E:\MULTFILMS\Rusty Rivets S01 1080p \S01E01.Rustys Rex Rescue-Rustys Park N Fly.1080p..
Format :
Format version : Version 4 / Version 2
File size : 553 MiB
Duration : 23 min 11 s
Overall bit rate : 3 332 kb/s
Movie name : Rusty Rivets S01 1080p by sergiyko
Encoded date : UTC 2018-04-17 07:21:22
Writing application : mkvmerge v22.0.0 ('At The End Of The World') 64-bit
Writing library : libebml v1.3.5 + libmatroska v1.4.8

Video
ID : 1
Format : AVC
Format/Info : Advanced Video Codec
Format profile : [email protected]
Format settings, CABAC : Yes
Format settings, ReFrames : 4 frames
Codec ID : V_MPEG4/ISO/AVC
Duration : 23 min 10 s
Bit rate : 3 138 kb/s
Width : 1 920 pixels
Height : 1 080 pixels
Display aspect ratio : 16:9
Frame rate mode : Variable
Frame rate : 23.976 (23976/1000) FPS
Color space : YUV
Chroma subsampling : 4:2:0
Bit depth : 8 bits
Scan type : Progressive
Bits/(Pixel*Frame) : 0.063
Stream size : 520 MiB (94%)
Title : S01E01.Rustys Rex Rescue-Rustys Park N Fly
Writing library : core 148
Encoding settings : cabac=1 / ref=4 / deblock=1:0:0 / analyse=0x3:0x113 / me=umh / subme=10 / psy=1 / psy_rd=1.00:0.15 / mixed_ref=1 / me_range=32 / chroma_me=1 / trellis=2 / 8x8dct=1 / cqm=0 / deadzone=21,11 / fast_pskip=1 / chroma_qp_offset=-3 / threads=24 / lookahead_threads=6 / sliced_threads=0 / nr=0 / decimate=1 / interlaced=0 / bluray_compat=0 / constrained_intra=0 / bframes=3 / b_pyramid=0 / b_adapt=2 / b_bias=0 / direct=3 / weightb=1 / open_gop=0 / weightp=2 / keyint=48 / keyint_min=4 / scenecut=0 / intra_refresh=0 / rc_lookahead=48 / rc=crf / mbtree=1 / crf=19.0 / qcomp=0.75 / qpmin=10 / qpmax=51 / qpstep=4 / vbv_maxrate=5000 / vbv_bufsize=10000 / crf_max=0.0 / nal_hrd=none / filler=0 / ip_ratio=1.40 / aq=1:0.80
Language : English
Default : Yes
Forced : No

Audio
ID : 2
Format : AC-3
Format/Info : Audio Coding 3
Mode extension : CM (complete main)
Format settings, Endianness : Big
Codec ID : A_AC3
Duration : 23 min 11 s
Bit rate mode : Constant
Bit rate : 192 kb/s
Channel(s) : 2 channels
Channel positions : Front: L R
Sampling rate : 48.0 kHz
Frame rate : 31.250 FPS (1536 spf)
Bit depth : 16 bits
Compression mode : Lossy
Delay relative to video : -41 ms
Stream size : 31.8 MiB (6%)
Title : DUB | ПлюсПлюс
Language : Ukrainian
Default : Yes
Forced : No
Скріншоти:


Бронзовий реліз (на рейтинг впливає 75% завантаженого)
 Трекер:    Зареєстрований   

Завантажити / скачати мультфільм українською



відео для новачків



 Зареєстрований:   2018-04-19 14:43
 Розмір:   2.09 GB 
 Оцінка мультсеріалу:   10/10 (Голосів: 5)
   
sergiyko.5 
VIP


З нами з: 25.02.16
Востаннє: 20.04.18
Повідомлень: 1454

2018-04-19 14:43  
Додав 8,10 серії.
Ваш часовий пояс: GMT + 2 Години

Нова тема   Відповісти